2 сезон

iTunes

1 сезон

1

iTunes

iTunes

iTunes

1 сезон

RePack

30

ИГРА 18+

pack

ВАЖНО

!!Акция!!

Alien_RageХит недели

RePack

MK11
pack

Забери бонус

RePack

jed

!!Акция!!

Alien_Rage

RePack

fifa19

RePack

Assassins Creed: Odyssey

RePack

NEED FOR SPEED™ PAYBACK

4 сезон

9 сезон

Бесстыжие 9 сезон

Все сериалы

все сериалы на PB.wtf

RePack

FAR CRY 5
  

Ночной портье / Il portiere di notte (Лилиана Кавани) [1974, драма, BDRip 720p] MVO, DVO, 3 x AVO, VO pb.wtf

Ночной портье через торрент pb.wtf

Размер: 7.49 GB | Добавлен: 5 лет 9 мес. назад | Торрент скачан:40 раз
Скачать  

15-01-2015 06:21 Ночной портье Скачать торрент  

Ночной портье / Il portiere di notte

Год выпуска: 1974
Страна: Италия
Жанр: драма
Продолжительность: 01:58:04
Перевод: профессиональный многоголосый, профессиональный двухголосый, авторский, любительский одноголосый
Субтитры: русские, английские (для слабослышащих)

Режиссёр: Лилиана Кавани

В ролях: Дирк Богард, Шарлотта Рэмплинг, Филипп Леруа, Габриэле Ферцетти, Джузеппе Аддоббати, Иза Миранда, Нино Биньямини, Марино Мазе, Амедео Амодио, Пьеро Вида

Описание: 1957 год. В венском отеле случайно встречаются бывший нацист и бывшая заключённая концлагеря. Пробудившиеся воспоминания палача и жертвы разжигают между ними странное, противоестественное влечение, которое психоаналитик назвал бы садомазохизмом...



Качество: BDRip 720p Сравнение с исходником
Формат: MKV
Видео кодек: H.264
Аудио кодек: AC3
Видео: 7567 Кбит/с, 1280x692, 23.976 кадра/с, 0.356 bpp
Аудио 1: русский, AC3, 192 kbps, 6 ch, 48 kHz [профессиональный многоголосый, Спб, 5 канал]
Аудио 2: русский, AC3, 192 kbps, 6 ch, 48 kHz [профессиональный двухголосый, Интервидео]
Аудио 3: русский, AC3, 192 kbps, 6 ch, 48 kHz [авторский, Андрей Гаврилов]

Отдельные файлы
Аудио: русский, AC3, 192 kbps, 2 ch, 48 kHz [авторский, Владимир Завгородний]
Аудио: русский, AC3, 192 kbps, 2 ch, 48 kHz [авторский, Сергей Визгунов]
Аудио: русский, AC3, 192 kbps, 2 ch, 48 kHz [любительский одноголосый]
Аудио: английский, AC3, 192 kbps, 2 ch, 48 kHz [оригинал]

Имеются неименованные главы/чаптеры.
Общее
Полное имя : D:VideoNochnoj portje.1974.BDRip.720pNochnoj portje.1974.AVO.rus.В.Завгородний.ac3
Формат : AC-3
Формат/Информация : Audio Coding 3
Размер файла : 162 Мбайт
Продолжительность : 1 ч. 58 м.
Режим общего битрейта : Постоянный
Общий поток : 192 Кбит/сек

Аудио
Формат : AC-3
Формат/Информация : Audio Coding 3
Расширение режима : CM (complete main)
Параметр Endianness формата : Big
Продолжительность : 1 ч. 58 м.
Вид битрейта : Постоянный
Битрейт : 192 Кбит/сек
Каналы : 2 канала
Расположение каналов : Front: L R
Частота : 48,0 КГц
Битовая глубина : 16 бит
Метод сжатия : С потерями
Размер потока : 162 Мбайт (100%)

Общее
Полное имя : D:VideoNochnoj portje.1974.BDRip.720pNochnoj portje.1974.AVO.rus.С.Визгунов.ac3
Формат : AC-3
Формат/Информация : Audio Coding 3
Размер файла : 162 Мбайт
Продолжительность : 1 ч. 58 м.
Режим общего битрейта : Постоянный
Общий поток : 192 Кбит/сек

Аудио
Формат : AC-3
Формат/Информация : Audio Coding 3
Расширение режима : CM (complete main)
Параметр Endianness формата : Big
Продолжительность : 1 ч. 58 м.
Вид битрейта : Постоянный
Битрейт : 192 Кбит/сек
Каналы : 2 канала
Расположение каналов : Front: L R
Частота : 48,0 КГц
Битовая глубина : 16 бит
Метод сжатия : С потерями
Размер потока : 162 Мбайт (100%)

Общее
Уникальный идентификатор : 195602863599857312635738555864026984968 (0x9327BDC0B0F84AB59A1136D14B283208)
Полное имя : D:VideoNochnoj portje.1974.BDRip.720pNochnoj portje.1974.BDRip.720p.mkv
Формат : Matroska
Версия формата : Version 4 / Version 2
Размер файла : 6,85 Гбайт
Продолжительность : 1 ч. 58 м.
Общий поток : 8309 Кбит/сек
Дата кодирования : UTC 2015-01-15 03:01:44
Программа кодирования : mkvmerge v7.5.0 ('Glass Culture') 64bit built on Jan 4 2015 16:48:44
Библиотека кодирования : libebml v1.3.1 + libmatroska v1.4.2
DURATION : 01:58:04.544000000
NUMBER_OF_FRAMES : 221392
NUMBER_OF_BYTES : 170029056
_STATISTICS_WRITING_APP : mkvmerge v7.5.0 ('Glass Culture') 64bit built on Jan 4 2015 16:48:44
_STATISTICS_WRITING_DATE_UTC : 2015-01-15 03:01:44
_STATISTICS_TAGS : BPS DURATION NUMBER_OF_FRAMES NUMBER_OF_BYTES

Видео
Идентификатор : 1
Формат : AVC
Формат/Информация : Advanced Video Codec
Профиль формата : High@L4.1
Параметр CABAC формата : Да
Параметр ReFrames формата : 9 кадров
Идентификатор кодека : V_MPEG4/ISO/AVC
Продолжительность : 1 ч. 58 м.
Битрейт : 7567 Кбит/сек
Ширина : 1280 пикселей
Высота : 692 пикселя
Соотношение сторон : 1,85:1
Режим частоты кадров : Постоянный
Частота кадров : 23,976 кадра/сек
Цветовое пространство : YUV
Субдискретизация насыщенности : 4:2:0
Битовая глубина : 8 бит
Тип развёртки : Прогрессивная
Бит/(Пиксели*Кадры) : 0.356
Размер потока : 6,24 Гбайт (91%)
Заголовок : BDRip -- STarankov
Библиотека кодирования : x264 core 142 r2431 ac76440
Настройки программы : cabac=1 / ref=9 / deblock=1:-1:-1 / analyse=0x3:0x113 / me=umh / subme=10 / psy=1 / psy_rd=1.00:0.15 / mixed_ref=1 / me_range=32 / chroma_me=1 / trellis=2 / 8x8dct=1 / cqm=0 / deadzone=21,11 / fast_pskip=1 / chroma_qp_offset=-3 / threads=6 / lookahead_threads=1 / sliced_threads=0 / nr=0 / decimate=1 / interlaced=0 / bluray_compat=0 / constrained_intra=0 / bframes=8 / b_pyramid=2 / b_adapt=2 / b_bias=0 / direct=3 / weightb=1 / open_gop=0 / weightp=2 / keyint=230 / keyint_min=23 / scenecut=40 / intra_refresh=0 / rc_lookahead=40 / rc=crf / mbtree=0 / crf=19.5 / qcomp=0.60 / qpmin=0 / qpmax=69 / qpstep=4 / vbv_maxrate=40000 / vbv_bufsize=50000 / crf_max=0.0 / nal_hrd=none / filler=0 / ip_ratio=1.40 / pb_ratio=1.30 / aq=1:1.00
Язык : English
Default : Да
Forced : Нет
DURATION : 01:58:04.244000000
NUMBER_OF_FRAMES : 169852
NUMBER_OF_BYTES : 6845565579
_STATISTICS_WRITING_APP : mkvmerge v7.5.0 ('Glass Culture') 64bit built on Jan 4 2015 16:48:44
_STATISTICS_WRITING_DATE_UTC : 2015-01-15 03:01:44
_STATISTICS_TAGS : BPS DURATION NUMBER_OF_FRAMES NUMBER_OF_BYTES

Аудио #1
Идентификатор : 2
Формат : AC-3
Формат/Информация : Audio Coding 3
Расширение режима : CM (complete main)
Параметр Endianness формата : Big
Идентификатор кодека : A_AC3
Продолжительность : 1 ч. 58 м.
Вид битрейта : Постоянный
Битрейт : 192 Кбит/сек
Каналы : 2 канала
Расположение каналов : Front: L R
Частота : 48,0 КГц
Битовая глубина : 16 бит
Метод сжатия : С потерями
Размер потока : 162 Мбайт (2%)
Заголовок : MVO (Спб, 5 канал)
Язык : Russian
Default : Да
Forced : Нет

Аудио #2
Идентификатор : 3
Формат : AC-3
Формат/Информация : Audio Coding 3
Расширение режима : CM (complete main)
Параметр Endianness формата : Big
Идентификатор кодека : A_AC3
Продолжительность : 1 ч. 58 м.
Вид битрейта : Постоянный
Битрейт : 192 Кбит/сек
Каналы : 2 канала
Расположение каналов : Front: L R
Частота : 48,0 КГц
Битовая глубина : 16 бит
Метод сжатия : С потерями
Размер потока : 162 Мбайт (2%)
Заголовок : DVO (Интервидео)
Язык : Russian
Default : Нет
Forced : Нет

Аудио #3
Идентификатор : 4
Формат : AC-3
Формат/Информация : Audio Coding 3
Расширение режима : CM (complete main)
Параметр Endianness формата : Big
Идентификатор кодека : A_AC3
Продолжительность : 1 ч. 58 м.
Вид битрейта : Постоянный
Битрейт : 192 Кбит/сек
Каналы : 2 канала
Расположение каналов : Front: L R
Частота : 48,0 КГц
Битовая глубина : 16 бит
Метод сжатия : С потерями
Размер потока : 162 Мбайт (2%)
Заголовок : AVO (Андрей Гаврилов)
Язык : Russian
Default : Нет
Forced : Нет

Меню
00:00:00.000 : :Chapter 01
00:09:34.365 : :Chapter 02
00:16:00.375 : :Chapter 03
00:24:34.889 : :Chapter 04
00:33:45.940 : :Chapter 05
00:40:45.902 : :Chapter 06
00:49:08.527 : :Chapter 07
00:55:09.097 : :Chapter 08
01:00:52.231 : :Chapter 09
01:07:48.273 : :Chapter 10
01:17:46.871 : :Chapter 11
01:27:14.104 : :Chapter 12
01:35:45.657 : :Chapter 13
01:41:06.435 : :Chapter 14
01:49:29.354 : :Chapter 15
01:56:15.051 : :Chapter 16

Общее
Полное имя : D:VideoNochnoj portje.1974.BDRip.720pNochnoj portje.1974.eng.SDH.srt
Размер файла : 114 Кбайт

Общее
Полное имя : D:VideoNochnoj portje.1974.BDRip.720pNochnoj portje.1974.Original.eng.ac3
Формат : AC-3
Формат/Информация : Audio Coding 3
Размер файла : 162 Мбайт
Продолжительность : 1 ч. 58 м.
Режим общего битрейта : Постоянный
Общий поток : 192 Кбит/сек

Аудио
Формат : AC-3
Формат/Информация : Audio Coding 3
Расширение режима : CM (complete main)
Параметр Endianness формата : Big
Продолжительность : 1 ч. 58 м.
Вид битрейта : Постоянный
Битрейт : 192 Кбит/сек
Каналы : 2 канала
Расположение каналов : Front: L R
Частота : 48,0 КГц
Битовая глубина : 16 бит
Метод сжатия : С потерями
Размер потока : 162 Мбайт (100%)

Общее
Полное имя : D:VideoNochnoj portje.1974.BDRip.720pNochnoj portje.1974.rus.srt
Размер файла : 96,3 Кбайт

Общее
Полное имя : D:VideoNochnoj portje.1974.BDRip.720pNochnoj portje.1974.VO.rus.любительский одноголосый.ac3
Формат : AC-3
Формат/Информация : Audio Coding 3
Размер файла : 162 Мбайт
Продолжительность : 1 ч. 58 м.
Режим общего битрейта : Постоянный
Общий поток : 192 Кбит/сек

Аудио
Формат : AC-3
Формат/Информация : Audio Coding 3
Расширение режима : CM (complete main)
Параметр Endianness формата : Big
Продолжительность : 1 ч. 58 м.
Вид битрейта : Постоянный
Битрейт : 192 Кбит/сек
Каналы : 2 канала
Расположение каналов : Front: L R
Частота : 48,0 КГц
Битовая глубина : 16 бит
Метод сжатия : С потерями
Размер потока : 162 Мбайт (100%)
pb.wtf



Скачать Ночной портье через торрент http://www.isok.ru/img/full/02d22ac0273f4b755a725e8c15be235e.jpg Скачать фильм Ночной портье через торрент бесплантно в хорошем качестве Описание: 1957 год. В венском отеле случайно встречаются бывший нацист и бывшая заключённая концлагеря. Пробудившиеся воспоминания палача и ... 10 10 4
Info! Золотая раздача, скачанное не засчитывается.
Торрент: Зарегистрирован [2015-01-15 06:21] · скачан: 40 раз
Статус: √ проверено
Размер: 7.49 GB
Как cкачать? Как скачать Ночной портье через торрент | qTorrent

% Раздел Тема Автор DL S | L
Фильмы [HD 720p, 1080p] (Хороший звук DUB, MVO) [ 16.28 GB ] Ночной портье / Il portiere di notte [1974 BDRip 1080p] MVO DVO 3 x AVO VO msltel Скачать
1 | 0

28-11-2019 20:33  

Отключить всю рекламу на сайте

    Дорогой пользователь! Огромная просьба, поблагодарите релизера, оцените раздачу и оставьте свои комментарий, если Вы скачали Ночной портье через торрент бесплатно! Внесите свою лепту в развитие PiratBit!
    Комментировать посты могут только пользователи прошедшие не сложную регистрацию
    Показать сообщения:    

    Ночной портье через торрент
    Скачать бесплатно Ночной портье
    Ночной портье скачать торрент
    Ночной портье смотреть онлайн
    Cкачать фильм Ночной портье бесплатно
    Ночной портье скачать торрент в хорошем качестве
    Ночной портье смотреть онлайн бесплатно в хорошем качестве


    Вы не можете начинать темы
    Вы не можете отвечать на сообщения
    Вы не можете редактировать свои сообщения
    Вы не можете удалять свои сообщения
    Вы не можете голосовать в опросах
    Вы не можете прикреплять файлы к сообщениям
    Вы можете скачивать файлы