Ссылка на приватное зеркало нашего сайта всего за 1$. Внимание количество ограничено!!!

2 сезон

iTunes

1 сезон

1

iTunes

iTunes

iTunes

1 сезон

RePack

30

ИГРА 18+

pack

ВАЖНО

!!Акция!!

Alien_RageХит недели

RePack

MK11
pack

Забери бонус

RePack

jed

!!Акция!!

Alien_Rage

RePack

fifa19

RePack

Assassins Creed: Odyssey

RePack

NEED FOR SPEED™ PAYBACK

4 сезон

9 сезон

Бесстыжие 9 сезон

Все сериалы

все сериалы на PB.wtf

RePack

FAR CRY 5
  

Горькая луна / Bitter Moon (Роман Полански) [1992, триллер, драма, мелодрама, BDRip 720p] DUB, MVO, DVO, VO pb.wtf

Горькая луна через торрент pb.wtf

Размер: 8.13 GB | Добавлен: 5 лет 9 мес. назад | Торрент скачан:102 раза
Скачать  

15-01-2015 12:00 Горькая луна Скачать торрент  

Горькая луна / Bitter Moon

Год выпуска: 1992
Страна: Франция, Великобритания, США
Жанр: триллер, драма, мелодрама
Продолжительность: 02:19:40
Перевод: дублированный, профессиональный многоголосый, профессиональный двухголосый, одноголосый закадровый
Субтитры: русские, английские

Режиссёр: Роман Полански

В ролях: Питер Койот, Эмманюэль Сенье, Хью Грант, Кристин Скотт Томас, Виктор Банерджи, Софи Патель, Патрик Альбенк, Смиля Михайлович, Лео Экманн, Люка Веллани

Описание: Случайная встреча ранним весенним утром в парижском автобусе на всю оставшуюся жизнь определила судьбу Оскара и Мими. Их не интересовали романтичность и возвышенная любовь, они хотели исследовать свою страсть. И они исследовали друг друга и себя до полного саморазрушения. Фильм снят по мотивам романа Паскаля Брюкнера «Горькая луна» (Lunes de Fiel, 1981).



Качество: BDRip 720p Сравнение с исходником
Формат: MKV
Видео кодек: H.264
Аудио кодек: AC3
Видео: 7207 kbps, 1280x676, 23.976 кадра/с, 0.347 bpp
Аудио 1: русский, AC3, 192 kbps, 2 ch, 48 kHz [дублированный, Хлопушка]
Аудио 2: русский, AC3, 192 kbps, 2 ch, 48 kHz [профессиональный многоголосый]
Аудио 3: русский, AC3, 192 kbps, 2 ch, 48 kHz [профессиональный двухголосый, Союз видео]
Аудио 4: русский, AC3, 192 kbps, 2 ch, 48 kHz [одноголосый закадровый]
Аудио 5: английский, AC3, 192 kbps, 2 ch, 48 kHz [оригинал]

Имеются неименованные главы/чаптеры.
Общее
Уникальный идентификатор : 202812195624757021576297968251820602151 (0x98943543AFBEFE10980EFCE9153C7327)
Полное имя : D:VideoGorkaja luna.1992.BDRip.720p.mkv
Формат : Matroska
Версия формата : Version 4 / Version 2
Размер файла : 8,13 Гбайт
Продолжительность : 2 ч. 19 м.
Общий поток : 8333 Кбит/сек
Дата кодирования : UTC 2015-01-15 09:47:01
Программа кодирования : mkvmerge v7.5.0 ('Glass Culture') 64bit built on Jan 4 2015 16:48:44
Библиотека кодирования : libebml v1.3.1 + libmatroska v1.4.2
DURATION : 02:13:46.158000000
NUMBER_OF_FRAMES : 1632
NUMBER_OF_BYTES : 60812
_STATISTICS_WRITING_APP : mkvmerge v7.5.0 ('Glass Culture') 64bit built on Jan 4 2015 16:48:44
_STATISTICS_WRITING_DATE_UTC : 2015-01-15 09:47:01
_STATISTICS_TAGS : BPS DURATION NUMBER_OF_FRAMES NUMBER_OF_BYTES

Видео
Идентификатор : 1
Формат : AVC
Формат/Информация : Advanced Video Codec
Профиль формата : High@L4.1
Параметр CABAC формата : Да
Параметр ReFrames формата : 9 кадров
Идентификатор кодека : V_MPEG4/ISO/AVC
Продолжительность : 2 ч. 19 м.
Битрейт : 7207 Кбит/сек
Ширина : 1280 пикселей
Высота : 676 пикселей
Соотношение сторон : 1,893
Режим частоты кадров : Постоянный
Частота кадров : 23,976 кадра/сек
Цветовое пространство : YUV
Субдискретизация насыщенности : 4:2:0
Битовая глубина : 8 бит
Тип развёртки : Прогрессивная
Бит/(Пиксели*Кадры) : 0.347
Размер потока : 7,03 Гбайт (86%)
Заголовок : BDRip -- STarankov
Библиотека кодирования : x264 core 142 r2431 ac76440
Настройки программы : cabac=1 / ref=9 / deblock=1:-1:-1 / analyse=0x3:0x113 / me=umh / subme=10 / psy=1 / psy_rd=1.00:0.15 / mixed_ref=1 / me_range=32 / chroma_me=1 / trellis=2 / 8x8dct=1 / cqm=0 / deadzone=21,11 / fast_pskip=1 / chroma_qp_offset=-3 / threads=6 / lookahead_threads=1 / sliced_threads=0 / nr=0 / decimate=1 / interlaced=0 / bluray_compat=0 / constrained_intra=0 / bframes=8 / b_pyramid=2 / b_adapt=2 / b_bias=0 / direct=3 / weightb=1 / open_gop=0 / weightp=2 / keyint=230 / keyint_min=23 / scenecut=40 / intra_refresh=0 / rc_lookahead=40 / rc=crf / mbtree=0 / crf=19.3 / qcomp=0.60 / qpmin=0 / qpmax=69 / qpstep=4 / vbv_maxrate=40000 / vbv_bufsize=50000 / crf_max=0.0 / nal_hrd=none / filler=0 / ip_ratio=1.40 / pb_ratio=1.30 / aq=1:1.00
Язык : English
Default : Да
Forced : Нет
DURATION : 02:19:40.956000000
NUMBER_OF_FRAMES : 200942
NUMBER_OF_BYTES : 7722460542
_STATISTICS_WRITING_APP : mkvmerge v7.5.0 ('Glass Culture') 64bit built on Jan 4 2015 16:48:44
_STATISTICS_WRITING_DATE_UTC : 2015-01-15 09:47:01
_STATISTICS_TAGS : BPS DURATION NUMBER_OF_FRAMES NUMBER_OF_BYTES

Аудио #1
Идентификатор : 2
Формат : AC-3
Формат/Информация : Audio Coding 3
Расширение режима : CM (complete main)
Параметр Endianness формата : Big
Идентификатор кодека : A_AC3
Продолжительность : 2 ч. 19 м.
Вид битрейта : Постоянный
Битрейт : 192 Кбит/сек
Каналы : 2 канала
Расположение каналов : Front: L R
Частота : 48,0 КГц
Битовая глубина : 16 бит
Метод сжатия : С потерями
Размер потока : 192 Мбайт (2%)
Заголовок : DUB (Хлопушка)
Язык : Russian
Default : Да
Forced : Нет

Аудио #2
Идентификатор : 3
Формат : AC-3
Формат/Информация : Audio Coding 3
Расширение режима : CM (complete main)
Параметр Endianness формата : Big
Идентификатор кодека : A_AC3
Продолжительность : 2 ч. 19 м.
Вид битрейта : Постоянный
Битрейт : 192 Кбит/сек
Каналы : 2 канала
Расположение каналов : Front: L R
Частота : 48,0 КГц
Битовая глубина : 16 бит
Метод сжатия : С потерями
Размер потока : 192 Мбайт (2%)
Заголовок : MVO
Язык : Russian
Default : Нет
Forced : Нет

Аудио #3
Идентификатор : 4
Формат : AC-3
Формат/Информация : Audio Coding 3
Расширение режима : CM (complete main)
Параметр Endianness формата : Big
Идентификатор кодека : A_AC3
Продолжительность : 2 ч. 19 м.
Вид битрейта : Постоянный
Битрейт : 192 Кбит/сек
Каналы : 2 канала
Расположение каналов : Front: L R
Частота : 48,0 КГц
Битовая глубина : 16 бит
Метод сжатия : С потерями
Размер потока : 192 Мбайт (2%)
Заголовок : DVO (Союз видео)
Язык : Russian
Default : Нет
Forced : Нет

Аудио #4
Идентификатор : 5
Формат : AC-3
Формат/Информация : Audio Coding 3
Расширение режима : CM (complete main)
Параметр Endianness формата : Big
Идентификатор кодека : A_AC3
Продолжительность : 2 ч. 19 м.
Вид битрейта : Постоянный
Битрейт : 192 Кбит/сек
Каналы : 2 канала
Расположение каналов : Front: L R
Частота : 48,0 КГц
Битовая глубина : 16 бит
Метод сжатия : С потерями
Размер потока : 192 Мбайт (2%)
Заголовок : VO (одноголосый закадровый)
Язык : Russian
Default : Нет
Forced : Нет

Аудио #5
Идентификатор : 6
Формат : AC-3
Формат/Информация : Audio Coding 3
Расширение режима : CM (complete main)
Параметр Endianness формата : Big
Идентификатор кодека : A_AC3
Продолжительность : 2 ч. 19 м.
Вид битрейта : Постоянный
Битрейт : 192 Кбит/сек
Каналы : 2 канала
Расположение каналов : Front: L R
Частота : 48,0 КГц
Битовая глубина : 16 бит
Метод сжатия : С потерями
Размер потока : 192 Мбайт (2%)
Заголовок : Original
Язык : English
Default : Нет
Forced : Нет

Текст #1
Идентификатор : 7
Формат : UTF-8
Идентификатор кодека : S_TEXT/UTF8
Идентификатор кодека/Информация : UTF-8 Plain Text
Заголовок : русский
Язык : Russian
Default : Нет
Forced : Нет

Текст #2
Идентификатор : 8
Формат : UTF-8
Идентификатор кодека : S_TEXT/UTF8
Идентификатор кодека/Информация : UTF-8 Plain Text
Заголовок : английский
Default : Нет
Forced : Нет

Меню
00:00:00.000 : :Chapter 01
00:17:17.502 : :Chapter 02
00:30:09.507 : :Chapter 03
00:44:27.597 : :Chapter 04
00:56:50.405 : :Chapter 05
01:14:17.818 : :Chapter 06
01:29:39.407 : :Chapter 07
01:47:41.921 : :Chapter 08
02:00:57.015 : :Chapter 09
pb.wtf



Скачать Горькая луна через торрент http://i64.fastpic.ru/big/2015/0115/fd/08be0bc4d913bad4ef12a1aa7350a4fd.jpg Скачать фильм Горькая луна через торрент бесплантно в хорошем качестве Описание: Случайная встреча ранним весенним утром в парижском автобусе на всю оставшуюся жизнь определила судьбу Оскара и Мими. Их не ... 10 10 5
Торрент: Зарегистрирован [2015-01-15 12:00] · скачан: 102 раз
Статус: √ проверено
Размер: 8.13 GB
Как cкачать? Как скачать Горькая луна через торрент | qTorrent

% Раздел Тема Автор DL S | L
Фильмы (Blu-ray, BD-Remux, HDDVD) [ 34.42 GB ] Горькая луна / Bitter Moon [1992 BDRemux 1080p] [GER Transfer] DUB + 2xMVO + DVO + 2xAVO - KORSAR kisa1980 Скачать
1 | 0
Фильмы [HD 720p, 1080p] (Хороший звук DUB, MVO) [ 16.6 GB ] Горькая луна / Bitter Moon [1992 BDRip 1080p] DUB MVO DVO VO msltel Скачать
1 | 0

28-11-2019 20:33  

Отключить всю рекламу на сайте

15-01-2015 22:01 Горькая луна Скачать торрент  

как много он струхнул...))) (третий скрин)pb.wtf



    Дорогой пользователь! Огромная просьба, поблагодарите релизера, оцените раздачу и оставьте свои комментарий, если Вы скачали Горькая луна через торрент бесплатно! Внесите свою лепту в развитие PiratBit!
    Комментировать посты могут только пользователи прошедшие не сложную регистрацию
    Показать сообщения:    

    Горькая луна через торрент
    Скачать бесплатно Горькая луна
    Горькая луна скачать торрент
    Горькая луна смотреть онлайн
    Cкачать фильм Горькая луна бесплатно
    Горькая луна скачать торрент в хорошем качестве
    Горькая луна смотреть онлайн бесплатно в хорошем качестве


    Вы не можете начинать темы
    Вы не можете отвечать на сообщения
    Вы не можете редактировать свои сообщения
    Вы не можете удалять свои сообщения
    Вы не можете голосовать в опросах
    Вы не можете прикреплять файлы к сообщениям
    Вы можете скачивать файлы