2 сезон

iTunes

MVO

1

2 сезон

iTunes

iTunes

1 сезон

RePack

30

Новинка

ВАЖНО

ИГРА 18+

pack

RePack

MK11
pack

Легкие деньги

RePack

jed

RePack

fifa19

RePack

RDR2

RePack

NEED FOR SPEED™ PAYBACK

4 сезон

9 сезон

Бесстыжие 9 сезон

Все сериалы

все сериалы на PB.wtf

RePack

FAR CRY 5

Anonymous, добрый день, мы не успеваем собрать деньги на оплату серверов за декабрь и январь, помогите нам пожалуйста в это трудное время. В качестве благодарности мы отключим Вам всю рекламу на сайте (укажите свой ник в строку Ваше имя)!

×
  
Magnet ссылка

Черепашки-ниндзя / Teenage Mutant Ninja Turtles (Джонатан Либесман) [2014 г., Фантастика, фэнтези, боевик, комедия, приключения, BDRip 1080p, Дубляж, Лицензия] Анаглиф (Дюбуа) pb.wtf

Черепашки-ниндзя через торрент pb.wtf

Размер: 6.58 GB | Добавлен: 6 лет назад | Торрент скачан:95 раз
Скачать  

15-01-2015 17:53 Черепашки-ниндзя Скачать торрент  

Черепашки-ниндзя / Teenage Mutant Ninja Turtles
Год выпуска: 2014
Страна: США
Жанр: Фантастика, фэнтези, боевик, комедия, приключения
Продолжительность: 01:41:18
Перевод: Дубляж, Лицензия
Субтитры: Russian

Режиссер: Джонатан Либесман
Продюссер: Майкл Бэй, Йен Брайс, Эндрю Форм
Сценарий: Джош Аппелбаум, Андре Немец, Ивэн Догерти

Бюджет: $125 000 000
Премьера в мире: 3 августа 2014



В ролях: Меган Фокс, Уилл Арнетт, Уильям Фихтнер, Алан Ричсон, Ноэль Фишер, Пит Пложек, Джонни Ноксвилл, Джереми Ховард, Дэнни Вудберн, Тони Шэлоуб

Описание: Будучи маленькой, Эйприл часто бывала в лаборатории отца, генного инженера, который работал над проектом создания суперсолдат. В результате пожара отец девочки погиб, а все его разработки были безвозвратно утеряны... Все, кроме четырёх подопытных черепашек и крысы. Их Эйприл спустила в канализацию, в надежде, что те как-нибудь смогут выжить. Спустя четырнадцать лет Эйприл вновь встречается с ними. Вот только встреча омрачена событиями, о которых узнаёт юная репортёрша и её друг-оператор: Шреддер, глава клана Фут, решил заразить весь Нью-Йорк смертельным вирусом, а позднее заработать шантажом целое состояние. И теперь всё в руках, то есть лапах, молодых черепашек-ниндзя, неугомонной Эприл О'Нил и её друга Вернона.

Доп. информация: Формат 3D: Анаглиф (Дюбуа)



Качество: BDRip 1080p
Формат: MKV
Видео кодек: H.264
Аудио кодек: AC3
Видео: x264, 1920 x 1080 (16:9), 8023 kbps, 23,976 fps, ( 0.161 bpp)
Аудио#1: Русский / AC3 / 48 KHz / 5.1 ch / 640 Kbps
Аудио#2: Английский / AC3 / 48 KHz / 5.1 ch / 640 Kbps



скриншот   скриншот   скриншот   скриншот   скриншот   скриншот  
Общее
Уникальный идентификатор : 184889063357773883092186866056007892379 (0x8B18569E2C8EF1C3A7C590158FBDBD9B)
Полное имя : E:\Teenage.Mutant.Ninja.Turtles.3D(Anaglyph_Dubois).mkv
Формат : Matroska
Версия формата : Version 4 / Version 2
Размер файла : 6,58 Гбайт
Продолжительность : 1 ч. 41 м.
Общий поток : 9303 Кбит/сек
Название фильма : Черепашки-ниндзя / Teenage Mutant Ninja Turtles (2014) 1080p | 3D-Video(Anaglyph_Dubois)(CROP)
Дата кодирования : UTC 2015-01-15 15:48:40
Программа кодирования : mkvmerge v6.2.0 ('Promised Land') built on Apr 28 2013 12:22:01
Библиотека кодирования : libebml v1.3.0 + libmatroska v1.4.0

Видео
Идентификатор : 1
Формат : AVC
Формат/Информация : Advanced Video Codec
Профиль формата : High@L4.1
MultiView_Count : 2
MultiView_Layout : Anaglyph (cyan/red)
Параметр CABAC формата : Да
Параметр ReFrames формата : 4 кадра
Идентификатор кодека : V_MPEG4/ISO/AVC
Продолжительность : 1 ч. 41 м.
Битрейт : 8023 Кбит/сек
Ширина : 1920 пикселей
Высота : 1080 пикселей
Соотношение сторон : 16:9
Режим частоты кадров : Постоянный
Частота кадров : 23,976 кадра/сек
Цветовое пространство : YUV
Субдискретизация насыщенности : 4:2:0
Битовая глубина : 8 бит
Тип развёртки : Прогрессивная
Бит/(Пиксели*Кадры) : 0.161
Размер потока : 5,55 Гбайт (84%)
Заголовок : Teenage Mutant Ninja Turtles 3D (Anaglyph_Dubois)(CROP).mkv
Библиотека кодирования : x264 core 130 r2273 b3065e6
Настройки программы : cabac=1 / ref=4 / deblock=1:-3:-3 / analyse=0x3:0x113 / me=umh / subme=9 / psy=1 / psy_rd=1.00:0.15 / mixed_ref=1 / me_range=32 / chroma_me=1 / trellis=1 / 8x8dct=1 / cqm=0 / deadzone=21,11 / fast_pskip=1 / chroma_qp_offset=-3 / threads=3 / lookahead_threads=1 / sliced_threads=0 / nr=0 / decimate=1 / interlaced=0 / bluray_compat=0 / constrained_intra=0 / bframes=4 / b_pyramid=2 / b_adapt=2 / b_bias=0 / direct=2 / weightb=1 / open_gop=0 / weightp=2 / keyint=250 / keyint_min=23 / scenecut=40 / intra_refresh=0 / rc_lookahead=50 / rc=2pass / mbtree=1 / bitrate=8023 / ratetol=1.0 / qcomp=0.60 / qpmin=0 / qpmax=69 / qpstep=4 / cplxblur=20.0 / qblur=0.5 / ip_ratio=1.40 / aq=1:1.00
Язык : English
Default : Да
Forced : Нет

Аудио #1
Идентификатор : 2
Формат : AC-3
Формат/Информация : Audio Coding 3
Расширение режима : CM (complete main)
Параметр Endianness формата : Big
Идентификатор кодека : A_AC3
Продолжительность : 1 ч. 41 м.
Вид битрейта : Постоянный
Битрейт : 640 Кбит/сек
Каналы : 6 каналов
Расположение каналов : Front: L C R, Side: L R, LFE
Частота : 48,0 КГц
Битовая глубина : 16 бит
Метод сжатия : С потерями
Размер потока : 464 Мбайт (7%)
Заголовок : Дубляж
Язык : Russian
Default : Да
Forced : Нет

Аудио #2
Идентификатор : 3
Формат : AC-3
Формат/Информация : Audio Coding 3
Расширение режима : CM (complete main)
Параметр Endianness формата : Big
Идентификатор кодека : A_AC3
Продолжительность : 1 ч. 41 м.
Вид битрейта : Постоянный
Битрейт : 640 Кбит/сек
Каналы : 6 каналов
Расположение каналов : Front: L C R, Side: L R, LFE
Частота : 48,0 КГц
Битовая глубина : 16 бит
Метод сжатия : С потерями
Размер потока : 464 Мбайт (7%)
Заголовок : Original
Язык : English
Default : Нет
Forced : Нет

Текст
Идентификатор : 4
Формат : UTF-8
Идентификатор кодека : S_TEXT/UTF8
Идентификатор кодека/Информация : UTF-8 Plain Text
Заголовок : Forced
Язык : Russian
Default : Да
Forced : Нет

Меню
00:00:00.000 : en:00:00:00.000
00:02:42.412 : en:00:02:42.412
00:06:00.819 : en:00:06:00.819
00:11:52.253 : en:00:11:52.253
00:16:02.795 : en:00:16:02.795
00:22:04.240 : en:00:22:04.240
00:28:24.453 : en:00:28:24.453
00:34:03.833 : en:00:34:03.833
00:38:06.284 : en:00:38:06.284
00:42:12.613 : en:00:42:12.613
00:48:39.291 : en:00:48:39.291
00:55:49.429 : en:00:55:49.429
01:00:47.894 : en:01:00:47.894
01:07:50.650 : en:01:07:50.650
01:15:34.864 : en:01:15:34.864
01:24:15.842 : en:01:24:15.842
01:30:22.417 : en:01:30:22.417
01:34:19.195 : en:01:34:19.195

pb.wtf



Скачать Черепашки-ниндзя через торрент http://pic.kartinco.top/images/8/7vzrg.jpg Скачать фильм Черепашки-ниндзя через торрент бесплантно в хорошем качестве Описание: Будучи маленькой, Эйприл часто бывала в лаборатории отца, генного инженера, который работал над проектом создания суперсолдат. В ... 9.8 10 4
Info! Золотая раздача, скачанное не засчитывается.
Торрент: Зарегистрирован [2015-01-15 17:53] · скачан: 95 раз
Статус: √ проверено
Размер: 6.58 GB
Как cкачать? Как скачать Черепашки-ниндзя через торрент | UTorrent

% Раздел Тема Автор DL S | L
Фильмы [HD 720p, 1080p] (Хороший звук DUB, MVO) [ 7.37 GB ] Черепашки-ниндзя 2 / Teenage Mutant Ninja Turtles: Out of the Shadows [2016 BDRip-HEVC 1080p] DUB [] bober100 Скачать
2 | 0
Ultra HD (UHD: 2K, 4K, 8K) — видео сверхвысокой чёткости [ 45.83 GB ] Черепашки-ниндзя / Teenage Mutant Ninja Turtles [2014 UHD BDRemux 2160p] DUB [Dolby Vision TV] sheker187 Скачать
1 | 0
Сборники и Сиквелы (48-60 fps) [ 47.85 GB ] Черепашки-ниндзя: Антология / Teenage Mutant Ninja Turtles: Antology [1990-2014 Гонконг BDRip 1080p / 60 FPS многоголосый дубляж] Tiberiumsun69 Скачать
1 | 1
Ultra HD (UHD: 2K, 4K, 8K) — видео сверхвысокой чёткости [ 28.26 GB ] Черепашки-ниндзя / Teenage Mutant Ninja Turtles [2014 UHD BDRip 2160p] DUB + AVO [А. Гаврилов] sheker187 Скачать
1 | 1
Ultra HD (UHD: 2K, 4K, 8K) — видео сверхвысокой чёткости [ 51.42 GB ] Черепашки-ниндзя / Teenage Mutant Ninja Turtles [2014 UHD BDRemux 2160p] DUB + AVO [А. Гаврилов] sheker187 Скачать
1 | 0
Ultra HD (UHD: 2K, 4K, 8K) — видео сверхвысокой чёткости [ 59.82 GB ] Черепашки-ниндзя / Teenage Mutant Ninja Turtles [2014 UHD Blu-ray EUR 2160p] DUB [HDR + Dolby Vision] sheker187 Скачать
1 | 0
Ultra HD (UHD: 2K, 4K, 8K) — видео сверхвысокой чёткости [ 59.98 GB ] Черепашки-ниндзя 2 / Teenage Mutant Ninja Turtles: Out of the Shadows [2016 UHD BDRemux 2160p] 2xAVO+DUB [] bober100 Скачать
1 | 0

28-11-2019 20:33  

Отключить всю рекламу на сайте

    Дорогой пользователь! Огромная просьба, поблагодарите релизера, оцените раздачу и оставьте свои комментарий, если Вы скачали Черепашки-ниндзя через торрент бесплатно! Внесите свою лепту в развитие PiratBit!
    Комментировать посты могут только пользователи прошедшие не сложную регистрацию
    Показать сообщения:    

    Черепашки-ниндзя через торрент
    Скачать бесплатно Черепашки-ниндзя
    Черепашки-ниндзя скачать торрент
    Черепашки-ниндзя смотреть онлайн
    Cкачать фильм Черепашки-ниндзя бесплатно
    Черепашки-ниндзя скачать торрент в хорошем качестве
    Черепашки-ниндзя смотреть онлайн бесплатно в хорошем качестве


    Вы не можете начинать темы
    Вы не можете отвечать на сообщения
    Вы не можете редактировать свои сообщения
    Вы не можете удалять свои сообщения
    Вы не можете голосовать в опросах
    Вы не можете прикреплять файлы к сообщениям
    Вы можете скачивать файлы