2 сезон

iTunes

MVO

1

2 сезон

iTunes

iTunes

1 сезон

RePack

30

Ultimate

ВАЖНО

ИГРА 18+

pack

RePack

MK11
pack

Легкие деньги

RePack

jed

RePack

fifa19

RePack

RDR2

RePack

NEED FOR SPEED™ PAYBACK

4 сезон

9 сезон

Бесстыжие 9 сезон

Все сериалы

все сериалы на PB.wtf

RePack

FAR CRY 5

Anonymous, добрый день, мы не успеваем собрать деньги на оплату серверов за декабрь и январь, помогите нам пожалуйста в это трудное время. В качестве благодарности мы отключим Вам всю рекламу на сайте (укажите свой ник в строку Ваше имя)!

×
  
Magnet ссылка

Помни воскресенье / Remember Sunday (Джефф Блекнер / Jeff Bleckner) [2013, США, драма, мелодрама, HDTVRip, Профессиональный многоголосый] pb.wtf

Помни воскресенье через торрент pb.wtf

Размер: 1.43 GB | Добавлен: 6 лет назад | Торрент скачан:358 раз
Скачать  

16-01-2015 00:38 Помни воскресенье Скачать торрент  

Помни воскресенье / Remember Sunday «Who says you can't fall in love every day?»
Год выпуска: 2013
Страна: США
Жанр: драма, мелодрама
Продолжительность: 01:35:28
Перевод: Профессиональный многоголосый
Субтитры: Отсутствует
Режиссер: Джефф Блекнер / Jeff Bleckner
В ролях:


Алексис Бледел (Molly), Закари Левай (Gus), Мерритт Уивер (Lucy), Бэрри Шебака Хенли (Baptiste), Валери Эзлинн (Jolene), Дэвид Хоффман (Jerry), Джерри Эдлер (Sam), Энн МакКензи (Ardis Applebaum), Дэна Гурье (Bernadette), Лариса Олейник (Lauren), Джеймс ДюМонт (Dr. Felton), Грифф Ферст (Professor Lawrence)

Описание:
Одинокая официантка Молли встречает красивого парня по имени Гас, который работает в магазине ювелирных украшений. Молли полагает, что наконец-то встретила своего единственного, но чем больше она узнает его, тем большей загадкой оказывается для нее Гас. Он рассеянный и озабоченный. Он что-то скрывает? Да. Гас неохотно делится с ней, поскольку страдает аневризмой мозга - у него совершенная потеря краткосрочной памяти. Каждый день - это новый день, каждый день его жизнь начинается заново. Каждый день он видит Молли и пытается вспомнить, кто она. Каждый день он должен влюбиться в нее снова и снова.

Рейтинг:

Качество: HDTVRip
Формат: AVI
Видео кодек:XviD
Аудио кодек:AC3
Видео: XviD, 720x400 (16:9), 1657 kbps, 23,976 fps, 0,240 bpp
Аудио №1: AC3 / 2.0 / 48 kHz / 192 kbps / 16 bit - Профессиональный многоголосый [Disney]
Аудио №2: AC3 / 2.0 / 48 kHz / 192 kbps / 16 bit - (оригинал)


General
Complete name : D:\Users\_KaisiK_\uTorrent\Помни про воскресенье.avi
Format : AVI
Format/Info : Audio Video Interleave
File size : 1.43 GiB
Duration : 1h 35mn
Overall bit rate : 2 137 Kbps
Movie name : Помни воскресенье / Помни про воскресенье / Remember Sunday (2013)
Writing application : VirtualDubMod 1.5.10.2 (build 2540/release)
Writing library : VirtualDubMod build 2540/release
Copyright : miha2154

Video
ID : 0
Format : MPEG-4 Visual
Format profile : Advanced Simple@L5
Format settings, BVOP : 1
Format settings, QPel : No
Format settings, GMC : No warppoints
Format settings, Matrix : Custom
Codec ID : XVID
Codec ID/Hint : XviD
Duration : 1h 35mn
Bit rate : 1 657 Kbps
Width : 720 pixels
Height : 400 pixels
Display aspect ratio : 16:9
Frame rate : 23.976 fps
Color space : YUV
Chroma subsampling : 4:2:0
Bit depth : 8 bits
Scan type : Progressive
Compression mode : Lossy
Bits/(Pixel*Frame) : 0.240
Stream size : 1.11 GiB (78%)
Writing library : XviD 65

Audio #1
ID : 1
Format : AC-3
Format/Info : Audio Coding 3
Mode extension : CM (complete main)
Codec ID : 2000
Duration : 1h 35mn
Bit rate mode : Constant
Bit rate : 192 Kbps
Channel(s) : 2 channels
Channel positions : Front: L R
Sampling rate : 48.0 KHz
Bit depth : 16 bits
Compression mode : Lossy
Stream size : 131 MiB (9%)
Alignment : Split accross interleaves
Title : Профессиональный (многоголосый закадровый) Disney

Audio #2
ID : 2
Format : AC-3
Format/Info : Audio Coding 3
Mode extension : CM (complete main)
Codec ID : 2000
Duration : 1h 35mn
Bit rate mode : Constant
Bit rate : 192 Kbps
Channel(s) : 2 channels
Channel positions : Front: L R
Sampling rate : 48.0 KHz
Bit depth : 16 bits
Compression mode : Lossy
Stream size : 131 MiB (9%)
Alignment : Split accross interleaves
Title : Английский

[/code]
pb.wtf



Скачать Помни воскресенье через торрент http://i66.fastpic.ru/big/2015/0116/ae/0203fc01f25ad903ba09768047810aae.png Скачать фильм Помни воскресенье через торрент бесплантно в хорошем качестве Описание: Одинокая официантка Молли встречает красивого парня по имени Гас, который работает в магазине ювелирных украшений. Молли ... 8.9 10 8
Info! Серебряная раздача, засчитывается только 50% скачанного.
Торрент: Зарегистрирован [2015-01-16 00:38] · скачан: 358 раз
Статус: √ проверено
Размер: 1.43 GB
Как cкачать? Как скачать Помни воскресенье через торрент | UTorrent

28-11-2019 20:33  

Отключить всю рекламу на сайте

    Дорогой пользователь! Огромная просьба, поблагодарите релизера, оцените раздачу и оставьте свои комментарий, если Вы скачали Помни воскресенье через торрент бесплатно! Внесите свою лепту в развитие PiratBit!
    Комментировать посты могут только пользователи прошедшие не сложную регистрацию
    Показать сообщения:    

    Помни воскресенье через торрент
    Скачать бесплатно Помни воскресенье
    Помни воскресенье скачать торрент
    Помни воскресенье смотреть онлайн
    Cкачать фильм Помни воскресенье бесплатно
    Помни воскресенье скачать торрент в хорошем качестве
    Помни воскресенье смотреть онлайн бесплатно в хорошем качестве


    Вы не можете начинать темы
    Вы не можете отвечать на сообщения
    Вы не можете редактировать свои сообщения
    Вы не можете удалять свои сообщения
    Вы не можете голосовать в опросах
    Вы не можете прикреплять файлы к сообщениям
    Вы можете скачивать файлы