2 сезон

iTunes

MVO

1

2 сезон

iTunes

iTunes

1 сезон

RePack

30

Новинка

ВАЖНО

ИГРА 18+

pack

RePack

MK11
pack

Легкие деньги

RePack

jed

RePack

fifa19

RePack

RDR2

RePack

NEED FOR SPEED™ PAYBACK

4 сезон

9 сезон

Бесстыжие 9 сезон

Все сериалы

все сериалы на PB.wtf

RePack

FAR CRY 5

Anonymous, доброе утро, мы не успеваем собрать деньги на оплату серверов за декабрь и январь, помогите нам пожалуйста в это трудное время. В качестве благодарности мы отключим Вам всю рекламу на сайте (укажите свой ник в строку Ваше имя)!

×
  
Magnet ссылка

Люди Икс: Дни минувшего будущего (Брайан Сингер) [2014 г., фантастика, боевик, триллер, приключения, BDRip 1080p, Дубляж, Лицензия] Анаглиф (Дюбуа) pb.wtf

Люди Икс: Дни минувшего будущего через торрент pb.wtf

Размер: 8.98 GB | Добавлен: 6 лет назад | Торрент скачан:76 раз
Скачать  

16-01-2015 20:36 Люди Икс: Дни минувшего будущего Скачать торрент  

Люди Икс: Дни минувшего будущего / X-Men: Days of Future Past
Год выпуска: 2014
Страна: США, Великобритания
Жанр: фантастика, боевик, триллер, приключения
Продолжительность: 02:11:35
Перевод: Дубляж, Лицензия
Субтитры: Russian, Ukrainian, English

Режиссер: Брайан Сингер
Продюссер: Саймон Кинберг, Хатч Паркер, Лорен Шулер Доннер
Сценарий: Саймон Кинберг, Джейн Голдман, Мэттью Вон

Бюджет: $200 000 000
Премьера в мире: 10 мая 2014



В ролях: Хью Джекман , Джеймс МакЭвой , Майкл Фассбендер , Дженнифер Лоуренс , Холли Берри , Николас Холт , Анна Пэкуин , Эллен Пейдж , Питер Динклэйдж , Шон Эшмор , Омар Си , Эван Питерс

Описание: В недалёком будущем мутанты близки к истреблению роботами-охотниками на мутантов Стражами. Единственная надежда для мутантов выжить - предотвратить череду роковых событий, приведших к появлению Стражей. С помощью своих способностей, Китти Прайд перемещает сознание Росомахи в его молодое тело в 1973 год. В прошлом всё оказывается не так радужно: молодой Профессор Икс окончательно разочарован в своих идеях, Магнето содержится в тюрьме глубоко под землёй, а человечество не знает как реагировать на широкое появление мутантов...

Доп. информация: Формат 3D: Анаглиф (Дюбуа)



Качество: BDRip 1080p
Формат: MKV
Видео кодек: H.264
Аудио кодек: AC3
Видео: x264, 1920 x 1080 (16:9), 8043 kbps, 23,976 fps, ( 0.162 bpp)
Аудио#1: Русский / AC3 / 48 KHz / 5.1 ch / 640 Kbps (Дубляж - BD 3D CEE)
Аудио#2: Украинский / AC3 / 48 KHz / 5.1 ch / 448 Kbps (Дубляж - BD 3D CEE)
Аудио#3: Английский / AC3 / 48 KHz / 5.1 ch / 640 Kbps Дубляж - BD 3D CEE)



скриншот   скриншот   скриншот   скриншот   скриншот   скриншот  
Общее
Уникальный идентификатор : 250171749331800910253903409494351973624 (0xBC35538A37BD91A0A479441230248CF8)
Полное имя : E:\X-Men.DaysOfFuturePast(2014)3D(Anaglyph_Dubois).mkv
Формат : Matroska
Версия формата : Version 4 / Version 2
Размер файла : 8,98 Гбайт
Продолжительность : 2 ч. 11 м.
Общий поток : 9773 Кбит/сек
Название фильма : Люди Икс: Дни минувшего будущего / X-Men: Days of Future Past (2014) 3D
Дата кодирования : UTC 2015-01-15 13:29:15
Программа кодирования : mkvmerge v6.2.0 ('Promised Land') built on Apr 28 2013 12:22:01
Библиотека кодирования : libebml v1.3.0 + libmatroska v1.4.0

Видео
Идентификатор : 1
Формат : AVC
Формат/Информация : Advanced Video Codec
Профиль формата : High@L4.1
MultiView_Count : 2
MultiView_Layout : Anaglyph (cyan/red)
Параметр CABAC формата : Да
Параметр ReFrames формата : 4 кадра
Идентификатор кодека : V_MPEG4/ISO/AVC
Продолжительность : 2 ч. 11 м.
Битрейт : 8043 Кбит/сек
Ширина : 1920 пикселей
Высота : 1080 пикселей
Соотношение сторон : 16:9
Режим частоты кадров : Постоянный
Частота кадров : 23,976 кадра/сек
Цветовое пространство : YUV
Субдискретизация насыщенности : 4:2:0
Битовая глубина : 8 бит
Тип развёртки : Прогрессивная
Бит/(Пиксели*Кадры) : 0.162
Размер потока : 7,22 Гбайт (80%)
Заголовок : Anaglyph_Dubois
Библиотека кодирования : x264 core 130 r2273 b3065e6
Настройки программы : cabac=1 / ref=4 / deblock=1:-3:-3 / analyse=0x3:0x113 / me=umh / subme=9 / psy=1 / psy_rd=1.00:0.15 / mixed_ref=1 / me_range=16 / chroma_me=1 / trellis=1 / 8x8dct=1 / cqm=0 / deadzone=21,11 / fast_pskip=1 / chroma_qp_offset=-3 / threads=3 / lookahead_threads=1 / sliced_threads=0 / nr=0 / decimate=1 / interlaced=0 / bluray_compat=0 / constrained_intra=0 / bframes=4 / b_pyramid=2 / b_adapt=2 / b_bias=0 / direct=3 / weightb=1 / open_gop=0 / weightp=2 / keyint=250 / keyint_min=23 / scenecut=40 / intra_refresh=0 / rc_lookahead=50 / rc=2pass / mbtree=1 / bitrate=8043 / ratetol=1.0 / qcomp=0.60 / qpmin=0 / qpmax=69 / qpstep=4 / cplxblur=20.0 / qblur=0.5 / ip_ratio=1.40 / aq=1:1.00
Язык : English
Default : Да
Forced : Нет

Аудио #1
Идентификатор : 2
Формат : AC-3
Формат/Информация : Audio Coding 3
Расширение режима : CM (complete main)
Параметр Endianness формата : Big
Идентификатор кодека : A_AC3
Продолжительность : 2 ч. 11 м.
Вид битрейта : Постоянный
Битрейт : 640 Кбит/сек
Каналы : 6 каналов
Расположение каналов : Front: L C R, Side: L R, LFE
Частота : 48,0 КГц
Битовая глубина : 16 бит
Метод сжатия : С потерями
Размер потока : 602 Мбайт (7%)
Заголовок : Дубляж - BD 3D CEE
Язык : Russian
Default : Да
Forced : Нет

Аудио #2
Идентификатор : 3
Формат : AC-3
Формат/Информация : Audio Coding 3
Расширение режима : CM (complete main)
Параметр Endianness формата : Big
Идентификатор кодека : A_AC3
Продолжительность : 2 ч. 11 м.
Вид битрейта : Постоянный
Битрейт : 448 Кбит/сек
Каналы : 6 каналов
Расположение каналов : Front: L C R, Side: L R, LFE
Частота : 48,0 КГц
Битовая глубина : 16 бит
Метод сжатия : С потерями
Размер потока : 422 Мбайт (5%)
Заголовок : Дубляж - BD 3D CEE
Язык : Ukrainian
Default : Нет
Forced : Нет

Аудио #3
Идентификатор : 4
Формат : AC-3
Формат/Информация : Audio Coding 3
Расширение режима : CM (complete main)
Параметр Endianness формата : Big
Идентификатор кодека : A_AC3
Продолжительность : 2 ч. 11 м.
Вид битрейта : Постоянный
Битрейт : 640 Кбит/сек
Каналы : 6 каналов
Расположение каналов : Front: L C R, Side: L R, LFE
Частота : 48,0 КГц
Битовая глубина : 16 бит
Метод сжатия : С потерями
Размер потока : 602 Мбайт (7%)
Заголовок : Original - BD 3D CEE
Язык : English
Default : Нет
Forced : Нет

Текст #1
Идентификатор : 5
Формат : UTF-8
Идентификатор кодека : S_TEXT/UTF8
Идентификатор кодека/Информация : UTF-8 Plain Text
Заголовок : Форсированные (iTunes)
Язык : Russian
Default : Да
Forced : Нет

Текст #2
Идентификатор : 6
Формат : UTF-8
Идентификатор кодека : S_TEXT/UTF8
Идентификатор кодека/Информация : UTF-8 Plain Text
Заголовок : Полные (iTunes) i
Язык : Russian
Default : Нет
Forced : Нет

Текст #3
Идентификатор : 7
Формат : UTF-8
Идентификатор кодека : S_TEXT/UTF8
Идентификатор кодека/Информация : UTF-8 Plain Text
Заголовок : Форсированные (выборка из iTunes)
Язык : Ukrainian
Default : Нет
Forced : Нет

Текст #4
Идентификатор : 8
Формат : UTF-8
Идентификатор кодека : S_TEXT/UTF8
Идентификатор кодека/Информация : UTF-8 Plain Text
Заголовок : Полные (iTunes) i
Язык : Ukrainian
Default : Нет
Forced : Нет

Текст #5
Идентификатор : 9
Формат : UTF-8
Идентификатор кодека : S_TEXT/UTF8
Идентификатор кодека/Информация : UTF-8 Plain Text
Заголовок : Forced (iTunes)
Язык : English
Default : Нет
Forced : Нет

Текст #6
Идентификатор : 10
Формат : UTF-8
Идентификатор кодека : S_TEXT/UTF8
Идентификатор кодека/Информация : UTF-8 Plain Text
Заголовок : Full (iTunes) i
Язык : English
Default : Нет
Forced : Нет

Меню
00:00:00.000 : :1
00:03:33.338 : :2
00:08:00.689 : :3
00:10:28.628 : :4
00:13:58.046 : :5
00:17:02.021 : :6
00:20:16.090 : :7
00:22:11.330 : :8
00:26:37.888 : :9
00:30:32.039 : :10
00:34:29.776 : :11
00:36:00.992 : :12
00:38:18.087 : :13
00:40:37.101 : :14
00:45:53.793 : :15
00:48:53.848 : :16
00:51:58.157 : :17
00:54:43.113 : :18
00:57:51.426 : :19
01:00:48.186 : :20
01:03:26.594 : :21
01:07:09.567 : :22
01:09:43.596 : :23
01:13:11.470 : :24
01:15:31.861 : :25
01:17:27.726 : :26
01:19:30.099 : :27
01:24:50.711 : :28
01:26:58.255 : :29
01:31:04.250 : :30
01:34:03.680 : :31
01:37:33.181 : :32
01:41:54.817 : :33
01:44:52.995 : :34
01:47:19.808 : :35
01:51:29.766 : :36
01:56:42.746 : :37
02:00:12.414 : :38
02:02:34.973 : :39
02:10:31.907 : :40

pb.wtf



Скачать Люди Икс: Дни минувшего будущего через торрент http://pic.kartinco.top/images/8/oz6e2.jpg Скачать фильм Люди Икс: Дни минувшего будущего через торрент бесплантно в хорошем качестве Описание: В недалёком будущем мутанты близки к истреблению роботами-охотниками на мутантов Стражами. Единственная надежда для мутантов ... 10 10 5
Info! Золотая раздача, скачанное не засчитывается.
Торрент: Зарегистрирован [2015-01-16 20:36] · скачан: 76 раз
Статус: √ проверено
Размер: 8.98 GB
Как cкачать? Как скачать Люди Икс: Дни минувшего будущего через торрент | UTorrent

% Раздел Тема Автор DL S | L
Ultra HD (UHD: 2K, 4K, 8K) — видео сверхвысокой чёткости [ 56.73 GB ] Люди Икс: Дни минувшего будущего / X-Men: Days of Future Past [2014 UHD BDRemux 2160p] DUB + 2xAVO [Tеатральная версия] sheker187 Скачать
1 | 0
Фильмы [HD 720p, 1080p] (Хороший звук DUB, MVO) [ 6.98 GB ] Люди Икс: Дни минувшего будущего / X-Men: Days of Future Past [2014 BDRip 1080p HEVC +AVO] [Rogue Cut] Мичман37 Скачать
1 | 0
Ultra HD (UHD: 2K, 4K, 8K) — видео сверхвысокой чёткости [ 29.03 GB ] Люди Икс: Дни минувшего будущего / X-Men: Days of Future Past [2014 UHD WEBRip 2160p] - [] sheker187 Скачать
1 | 0
R.G. Resident & PiratVoice - Фильмы, Видео [ 3.46 GB ] Люди Икс: Дни минувшего будущего / X-Men: Days of Future Past [2014 HDRip-AVC () + Оригинал] от R.G. Resident Dean24 Скачать
1 | 0
Фильмы 2014 [DVDrip, WEB-DLRip, HDrip] [ 1.46 GB ] Люди Икс: Дни минувшего будущего [2014 HDRip ] Ворон Скачать
2 | 0
Фильмы 2014 [DVDrip, WEB-DLRip, HDrip] [ 1.75 GB ] Люди Икс: Дни минувшего будущего [2014 BDRip-AVC] [EXTENDED] Dub potroks Скачать
1 | 0
Фильмы 2014 [DVDrip, WEB-DLRip, HDrip] [ 2.91 GB ] Люди Икс: Дни минувшего будущего [2014 BDRip-AVC] [EXTENDED] Dub potroks Скачать
3 | 0

28-11-2019 20:33  

Отключить всю рекламу на сайте

    Дорогой пользователь! Огромная просьба, поблагодарите релизера, оцените раздачу и оставьте свои комментарий, если Вы скачали Люди Икс: Дни минувшего будущего через торрент бесплатно! Внесите свою лепту в развитие PiratBit!
    Комментировать посты могут только пользователи прошедшие не сложную регистрацию
    Показать сообщения:    

    Люди Икс: Дни минувшего будущего через торрент
    Скачать бесплатно Люди Икс: Дни минувшего будущего
    Люди Икс: Дни минувшего будущего скачать торрент
    Люди Икс: Дни минувшего будущего смотреть онлайн
    Cкачать фильм Люди Икс: Дни минувшего будущего бесплатно
    Люди Икс: Дни минувшего будущего скачать торрент в хорошем качестве
    Люди Икс: Дни минувшего будущего смотреть онлайн бесплатно в хорошем качестве


    Вы не можете начинать темы
    Вы не можете отвечать на сообщения
    Вы не можете редактировать свои сообщения
    Вы не можете удалять свои сообщения
    Вы не можете голосовать в опросах
    Вы не можете прикреплять файлы к сообщениям
    Вы можете скачивать файлы