1 сезон

1 сезон

iTunes

1

КиноПоиск HD

Кинопоиск HD

iTunes

13

1 сезон

RePack

30

Новинка

ВАЖНО

ИГРА 18+

pack

RePack

MK11
pack

Легкие деньги

RePack

jed

RePack

fifa19

RePack

RDR2

RePack

NEED FOR SPEED™ PAYBACK

4 сезон

9 сезон

Бесстыжие 9 сезон

Все сериалы

все сериалы на PB.wtf

RePack

FAR CRY 5
  
Magnet ссылка

Искажение / Reverb (Эйтан Аррузи) [2008 г., ужасы, WEB-DLRip, Профессиональный многоголосый , закадровый ] pb.wtf

Искажение через торрент pb.wtf

Размер: 1.48 GB | Добавлен: 6 лет 2 мес. назад | Торрент скачан:69 раз
Скачать  

17-01-2015 18:22 Искажение Скачать торрент  

Искажение / Reverb
Год выпуска: 2008
Страна: Великобритания / Reverb Productions, Swipe Films, Swipe Films
Жанр: ужасы
Продолжительность: 01:28:34
Перевод: Профессиональный (многоголосый, закадровый)

Режиссер: Эйтан Аррузи

В ролях: Лео Грегори, Ева Бертистл, Памела Бэнкс, Марго Стилли, Люк де Вулфсон, Стефен Лорд, Джон Гиллеспи, Адам Ланнон, Стивен Лорд

Описание: Молодой музыкант договаривается со своим приятелем бесплатно поработать в студии звукозаписи ночью. Он должен записать трек, который несомненно станет хитом. На запись он берет свою подружку певицу. Но во время записи что-то начинает идти не так. Появляются посторонние шумы, обрывки музыки, голоса, бесконечно звонит телефон.

Музыкант находит в Интернете информацию, что в этой студии рок-звезда Марк Гриффин записывал свой последний альбом и в поиске идеального звучания убил всех своих музыкантов, а потом и себя. Теперь его дух начинает терроризировать героев. Выхода из студии нет, и они начинают борьбу за выживание…

Качество: WEB-DLRip
Формат: AVI
Видео кодек: XviD
Аудио кодек: AC3
Видео: 720x400 (1.80:1), 23.976 fps, XviD build 50 ~2193 kbps avg, 0.32 bit/pixel
Аудио: 48 kHz, AC3 Dolby Digital, 2/0 (L,R) ch, ~192 kbps

скриншот   скриншот   скриншот   скриншот   скриншот  

Общее
Полное имя : F:\кино\Искажение.2008.WEB-DLRip.avi
Формат : AVI
Формат/Информация : Audio Video Interleave
Размер файла : 1,48 Гбайт
Продолжительность : 1 ч. 28 м.
Общий поток : 2395 Кбит/сек
Программа кодирования : VirtualDubMod 1.5.10.3 | www.virtualdub-fr.org || (build 2550/release)
Библиотека кодирования : VirtualDubMod build 2550/release

Видео
Идентификатор : 0
Формат : MPEG-4 Visual
Профиль формата : Advanced Simple@L5
Параметр BVOP формата : 2
Параметр QPel формата : Нет
Параметр GMC формата : Без точки перехода
Параметр матрицы формата : Default (H.263)
Идентификатор кодека : XVID
Идентификатор кодека/Подсказка : XviD
Продолжительность : 1 ч. 28 м.
Битрейт : 2194 Кбит/сек
Ширина : 720 пикселей
Высота : 400 пикселей
Соотношение сторон : 16:9
Частота кадров : 23,976 кадра/сек
Цветовое пространство : YUV
Субдискретизация насыщенности : 4:2:0
Битовая глубина : 8 бит
Тип развёртки : Прогрессивная
Метод сжатия : С потерями
Бит/(Пиксели*Кадры) : 0.318
Размер потока : 1,36 Гбайт (92%)
Библиотека кодирования : XviD 1.2.1 (UTC 2008-12-04)

Аудио
Идентификатор : 1
Формат : AC-3
Формат/Информация : Audio Coding 3
Расширение режима : CM (complete main)
Параметр Endianness формата : Big
Идентификатор кодека : 2000
Продолжительность : 1 ч. 28 м.
Вид битрейта : Постоянный
Битрейт : 192 Кбит/сек
Каналы : 2 канала
Расположение каналов : Front: L R
Частота : 48,0 КГц
Битовая глубина : 16 бит
Метод сжатия : С потерями
Размер потока : 121 Мбайт (8%)
Выравнивание : Разделение по промежуткам
Продолжительность промежутка : 42 мс. (1,00 видеокадр)
Время предзагрузки промежутка : 500 мс.

pb.wtf



Скачать Искажение через торрент https://pic.kartinco.top/images/8/r7fm3.jpg Скачать фильм Искажение через торрент бесплантно в хорошем качестве Описание: Молодой музыкант договаривается со своим приятелем бесплатно поработать в студии звукозаписи ночью. Он должен записать трек, ... 9.9 10 7
Торрент: Зарегистрирован [2015-01-17 18:22] · скачан: 69 раз
Статус: √ проверено
Размер: 1.48 GB
Как cкачать? Как скачать Искажение через торрент | UTorrent

28-11-2019 20:33  

Отключить всю рекламу на сайте

    Дорогой пользователь! Огромная просьба, поблагодарите релизера, оцените раздачу и оставьте свои комментарий, если Вы скачали Искажение через торрент бесплатно! Внесите свою лепту в развитие PiratBit!
    Комментировать посты могут только пользователи прошедшие не сложную регистрацию
    Показать сообщения:    

    Искажение через торрент
    Скачать бесплатно Искажение
    Искажение скачать торрент
    Искажение смотреть онлайн
    Cкачать фильм Искажение бесплатно
    Искажение скачать торрент в хорошем качестве
    Искажение смотреть онлайн бесплатно в хорошем качестве


    Вы не можете начинать темы
    Вы не можете отвечать на сообщения
    Вы не можете редактировать свои сообщения
    Вы не можете удалять свои сообщения
    Вы не можете голосовать в опросах
    Вы не можете прикреплять файлы к сообщениям
    Вы можете скачивать файлы