Marvel's Avengers Deluxe Edition (супер цена) 159р. Внимание количество ограничено!!!

2 сезон

iTunes

iTunes

1

iTunes

iTunes

iTunes

WEBRip

iTunes

30
pack

Новость дня

ВАЖНО

!!Акция!!

Alien_RageХит недели

RePack

Horizon Zero Dawn

ИГРА 18+

pack

RePack

jed

!!Акция!!

Alien_Rage

RePack

fifa19

RePack

Assassins Creed: Odyssey

RePack

NEED FOR SPEED™ PAYBACK

4 сезон

9 сезон

Бесстыжие 9 сезон

Все сериалы

все сериалы на PB.wtf

RePack

FAR CRY 5
  

Судья / The Judge (Дэвид Добкин / David Dobkin) [2014, Драма, BDRip-AVC] DUB Лицензия pb.wtf

Судья через торрент pb.wtf

Раздают: 1 [ 0 KB/s ]
Размер: 1.46 GB | Добавлен: 5 лет 7 мес. назад | Торрент скачан:3004 раза
Скачать  

17-01-2015 19:00 Судья Скачать торрент  

Судья / The Judge
Год выпуска: 2014
Страна: США / Warner Bros. Pictures, Village Roadshow Pictures...
Жанр: Драма
Продолжительность: 02:21:30
Перевод: Дубляж [BD CEE]
Субтитры: Русские (полные + форс.), украинские, английские (SDH + SDH-Colored)

Режиссер: Дэвид Добкин / David Dobkin

В ролях: Роберт Дауни мл., Роберт Дювалл, Вера Фармига, Билли Боб Торнтон, Винсент Д’Онофрио, Джереми Стронг, Дэкс Шепард, Лейтон Мистер, Кен Ховард, Эмма Трамбле...

Описание: В центре истории — успешный адвокат, который приезжает в родной город на похороны матери и узнаёт, что его отца, городского судью, подозревают в убийстве. Герой решает задержаться, чтобы выяснить правду, и постепенно лучше узнаёт родственников, с которыми давно вообще никак не общался.



Качество: BDRip-AVC
Формат: MKV
Видео кодек: H.264
Аудио кодек: AC3
Видео: 912x380 (2,40:1), 23,976 fps, 1285 kbps, 0.155 bit/pixel
Аудио: 48 kHz, AC3 Dolby Digital, 2/0 (L,R) ch, 192.00 kbps

Релиз группы:
Автор рипа: potroks

Общее
Уникальный идентификатор : 207041884501073256422516098637108309548 (0x9BC2D106D1A2FB9EBF2AA5625DBF6E2C)
Полное имя : Sud'ya.2014.RUS.BDRip.x264.-HELLYWOOD.mkv
Формат : Matroska
Версия формата : Version 4 / Version 2
Размер файла : 1,46 Гбайт
Продолжительность : 2 ч. 21 м.
Общий поток : 1479 Кбит/сек
Название фильма : The Judge (2014) - HELLYWOOD
Дата кодирования : UTC 2015-01-25 20:49:33
Программа кодирования : mkvmerge v5.9.0 ('On The Loose') built on Dec 15 2012 16:39:58
Библиотека кодирования : libebml v1.3.0 + libmatroska v1.4.0

Видео
Идентификатор : 1
Формат : AVC
Формат/Информация : Advanced Video Codec
Профиль формата : High@L4.1
Параметр CABAC формата : Да
Параметр ReFrames формата : 12 кадров
Идентификатор кодека : V_MPEG4/ISO/AVC
Продолжительность : 2 ч. 21 м.
Битрейт : 1285 Кбит/сек
Ширина : 912 пикселей
Высота : 380 пикселей
Соотношение сторон : 2,40:1
Режим частоты кадров : Постоянный
Частота кадров : 23,976 кадра/сек
Цветовое пространство : YUV
Субдискретизация насыщенности : 4:2:0
Битовая глубина : 8 бит
Тип развёртки : Прогрессивная
Бит/(Пиксели*Кадры) : 0.155
Размер потока : 1,24 Гбайт (85%)
Заголовок : potroks
Библиотека кодирования : x264 core 130 r2273 b3065e6
Настройки программы : cabac=1 / ref=12 / deblock=1:-3:-3 / analyse=0x3:0x133 / me=umh / subme=11 / psy=1 / psy_rd=1.00:0.01 / mixed_ref=1 / me_range=48 / chroma_me=1 / trellis=2 / 8x8dct=1 / cqm=0 / deadzone=21,11 / fast_pskip=0 / chroma_qp_offset=-3 / threads=9 / lookahead_threads=6 / sliced_threads=0 / nr=0 / decimate=0 / interlaced=0 / bluray_compat=0 / constrained_intra=0 / bframes=13 / b_pyramid=2 / b_adapt=2 / b_bias=0 / direct=3 / weightb=1 / open_gop=0 / weightp=2 / keyint=250 / keyint_min=23 / scenecut=40 / intra_refresh=0 / rc_lookahead=150 / rc=2pass / mbtree=1 / bitrate=1285 / ratetol=1.0 / qcomp=0.70 / qpmin=0 / qpmax=69 / qpstep=4 / cplxblur=20.0 / qblur=0.5 / vbv_maxrate=50000 / vbv_bufsize=62500 / nal_hrd=none / ip_ratio=1.30 / aq=2:0.80
Язык : English
Default : Да
Forced : Нет

Аудио
Идентификатор : 2
Формат : AC-3
Формат/Информация : Audio Coding 3
Расширение режима : CM (complete main)
Параметр Endianness формата : Big
Идентификатор кодека : A_AC3
Продолжительность : 2 ч. 21 м.
Вид битрейта : Постоянный
Битрейт : 192 Кбит/сек
Каналы : 2 канала
Расположение каналов : Front: L R
Частота : 48,0 КГц
Битовая глубина : 16 бит
Метод сжатия : С потерями
Размер потока : 194 Мбайт (13%)
Заголовок : Dub | DD 2.0 @ 192 kbps - Blu-Ray CEE
Язык : Russian
Default : Да
Forced : Нет

Текст #1
Идентификатор : 3
Формат : UTF-8
Идентификатор кодека : S_TEXT/UTF8
Идентификатор кодека/Информация : UTF-8 Plain Text
Заголовок : форс.
Язык : Russian
Default : Да
Forced : Да

Текст #2
Идентификатор : 4
Формат : UTF-8
Идентификатор кодека : S_TEXT/UTF8
Идентификатор кодека/Информация : UTF-8 Plain Text
Язык : Russian
Default : Нет
Forced : Нет

Текст #3
Идентификатор : 5
Формат : UTF-8
Идентификатор кодека : S_TEXT/UTF8
Идентификатор кодека/Информация : UTF-8 Plain Text
Язык : Ukrainian
Default : Нет
Forced : Нет

Текст #4
Идентификатор : 6
Формат : UTF-8
Идентификатор кодека : S_TEXT/UTF8
Идентификатор кодека/Информация : UTF-8 Plain Text
Заголовок : SDH-Colored
Язык : English
Default : Нет
Forced : Нет

Текст #5
Идентификатор : 7
Формат : UTF-8
Идентификатор кодека : S_TEXT/UTF8
Идентификатор кодека/Информация : UTF-8 Plain Text
Заголовок : SDH
Язык : English
Default : Нет
Forced : Нет

Меню
00:00:00.000 : en:(01)00:00:00:000
00:11:59.218 : en:(02)00:11:59:218
00:20:47.120 : en:(03)00:20:47:120
00:31:22.547 : en:(04)00:31:22:547
00:41:06.380 : en:(05)00:41:06:380
00:50:42.622 : en:(06)00:50:42:622
00:59:44.497 : en:(07)00:59:44:497
01:09:25.452 : en:(08)01:09:25:452
01:20:00.754 : en:(09)01:20:00:754
01:28:33.766 : en:(10)01:28:33:766
01:40:18.971 : en:(11)01:40:18:971
01:51:38.942 : en:(12)01:51:38:942
02:01:30.324 : en:(13)02:01:30:324
02:10:55.681 : en:(14)02:10:55:681
02:14:45.077 : en:(15)02:14:45:077
02:21:31.316 : en:(16)02:21:31:316

pb.wtf



Скачать Судья через торрент http://pic.kartinco.top/images/8/e22kj.jpg Скачать фильм Судья через торрент бесплантно в хорошем качестве Описание: В центре истории — успешный адвокат, который приезжает в родной город на похороны матери и узнаёт, что его отца, городского ... 9.4 10 58
Info! Золотая раздача, скачанное не засчитывается.
Торрент: Зарегистрирован [2015-01-26 06:29] · скачан: 3 004 раз
Статус: √ проверено
Размер: 1.46 GB
Как cкачать? Как скачать Судья через торрент | qTorrent

% Раздел Тема Автор DL S | L
Фильмы [HD 720p, 1080p] (Хороший звук DUB, MVO) [ 18.36 GB ] Судья / The Judge [2014 BDRip 1080p Dub ] Seedtank Скачать
1 | 0
Фильмы 2014 [DVDrip, WEB-DLRip, HDrip] [ 2.05 GB ] Судья / The Judge [2014 WEB-DLRip] killermax2013 Скачать
1 | 0

28-11-2019 20:33  

Отключить всю рекламу на сайте

26-01-2015 06:31 Судья Скачать торрент  

замена на лицензиюpb.wtf



06-02-2015 07:49 Судья Скачать торрент  

хороший фильм мне понравилсяpb.wtf



09-02-2015 15:40 Судья Скачать торрент  

sarcastic sarcasticpb.wtf



10-02-2015 10:47 Судья Скачать торрент  

как фильм ???pb.wtf



15-02-2015 12:35 Судья Скачать торрент  

звук полное чмо,оч тихий...pb.wtf



08-04-2015 16:33 Судья Скачать торрент  

Ходил в кино на этот фильм. И на мой взгляд, это достойный фильм. Хочется пересматривать постоянно! Я был под впечатлением когда первый раз посмотрел его!!!pb.wtf



07-05-2015 11:23 Судья Скачать торрент  

Хороший фильмец, семейный. Всем советуюpb.wtf



08-05-2015 18:55 Судья Скачать торрент  

Стоящий фильм. С женой смотрели на одном дыхании. Трогательная семейная драма. Рекомендую к просмотру.pb.wtf



    Дорогой пользователь! Огромная просьба, поблагодарите релизера, оцените раздачу и оставьте свои комментарий, если Вы скачали Судья через торрент бесплатно! Внесите свою лепту в развитие PiratBit!
    Комментировать посты могут только пользователи прошедшие не сложную регистрацию
    Показать сообщения:    

    Судья через торрент
    Скачать бесплатно Судья
    Судья скачать торрент
    Судья смотреть онлайн
    Cкачать фильм Судья бесплатно
    Судья скачать торрент в хорошем качестве
    Судья смотреть онлайн бесплатно в хорошем качестве


    Вы не можете начинать темы
    Вы не можете отвечать на сообщения
    Вы не можете редактировать свои сообщения
    Вы не можете удалять свои сообщения
    Вы не можете голосовать в опросах
    Вы не можете прикреплять файлы к сообщениям
    Вы можете скачивать файлы