Ссылка на приватное зеркало нашего сайта всего за 1$. Внимание количество ограничено!!!

2 сезон

iTunes

1 сезон

1

iTunes

iTunes

iTunes

1 сезон

RePack

30

ИГРА 18+

pack

ВАЖНО

!!Акция!!

Alien_RageХит недели

RePack

MK11
pack

Забери бонус

RePack

jed

!!Акция!!

Alien_Rage

RePack

fifa19

RePack

Assassins Creed: Odyssey

RePack

NEED FOR SPEED™ PAYBACK

4 сезон

9 сезон

Бесстыжие 9 сезон

Все сериалы

все сериалы на PB.wtf

RePack

FAR CRY 5
  

Вальс для Моники / Monica Z (Пер Флю / Per Fly) [2013, Швеция, драма, биография, музыка, BDRip 720p, Профессиональный многоголосый - Лицензия] pb.wtf

Вальс для Моники через торрент pb.wtf

Размер: 5.84 GB | Добавлен: 5 лет 9 мес. назад | Торрент скачан:10 раз
Скачать  

17-01-2015 21:01 Вальс для Моники Скачать торрент  

Вальс для Моники / Monica Z«A lingonberry branch in a cocktail glass»
Год выпуска: 2013
Страна: Швеция
Жанр: драма, биография, музыка
Продолжительность: 01:51:31
Перевод: Профессиональный многоголосый [Лицензия]
Субтитры: Русские, английские, шведские
Режиссер: Пер Флю / Per Fly
В ролях:


Эдда Магнасон (Monica), Сверрир Гуднасон (Sture), Кьель Бергквист (Bengt), Вера Витали (Marika), Оскар Тунберг (Vilgot), Johannes Wanselow (Beppe), Надя Христианссон (Eva-Lena), David Hellenius (Skivbolagsdirektören), Сесилия Юнг (Greta), Фредрик Линдборг (Dompan), Йорген Торссон (Tage), Hanna Ullerstam (Kerstin)

Описание:
Моника, девушка из маленького шведского городка, мечтала о ярких огнях джазовых ночных клубов. И ее мечта сбылась - она стала известной певицей и актрисой золотой эпохи джаза. Поклонники боготворят ее, но глубоко внутри она несчастна. За ней шлейфом тянутся разбитые сердца и невыполненные обещания. Утро Моника встречает в одиночестве, с коктейлем в руке, и осознает, что назад пути нет.

Рейтинг:

Качество: BDRip 720p
Формат: MKV
Видео кодек:AVC
Аудио кодек:AC3
Видео: AVC, 1280x536 (2.40:1), 6328 kbps, 24 fps, 0,384 bpp
Аудио №1: русский / AC3 / 5.1 / 48 kHz / 384 kbps / 16 bit - Профессиональный многоголосый [Лицензия]
Аудио №2: Swedish / AC3 / 5.1 / 48 kHz / 640 kbps / 16 bit - (оригинал)


General
Unique ID : 235709816489126630791820450541927994281 (0xB1540F33480D82729AB94FD23D2113A9)
Complete name : D:\Users\_KaisiK_\uTorrent\Monica.Z.2013.P.BDRip.720p.UNIONGANG.TV.mkv
Format : Matroska
Format version : Version 4 / Version 2
File size : 5.84 GiB
Duration : 1h 51mn
Overall bit rate : 7 502 Kbps
Movie name : Monica.Z.2013.P.BDRip.720p.ELEKTRI4KA - UNIONGANG.TV
Encoded date : UTC 2015-01-04 07:46:23
Writing application : mkvmerge v7.4.0 ('Circles') 64bit built on Dec 12 2014 12:19:56
Writing library : libebml v1.3.0 + libmatroska v1.4.1
Attachment : Yes / Yes

Video
ID : 1
Format : AVC
Format/Info : Advanced Video Codec
Format profile : High@L4.1
Format settings, CABAC : Yes
Format settings, ReFrames : 9 frames
Codec ID : V_MPEG4/ISO/AVC
Duration : 1h 51mn
Bit rate : 6 328 Kbps
Width : 1 280 pixels
Height : 536 pixels
Display aspect ratio : 2.40:1
Frame rate : 24.000 fps
Color space : YUV
Chroma subsampling : 4:2:0
Bit depth : 8 bits
Scan type : Progressive
Bits/(Pixel*Frame) : 0.384
Stream size : 4.93 GiB (84%)
Title : Monica.Z.2013.P.BDRip.720p.ELEKTRI4KA - UNIONGANG.TV
Writing library : x264 core 142 r2479kMod dd79a61
Encoding settings : cabac=1 / ref=9 / deblock=1:-3:-3 / analyse=0x3:0x133 / me=umh / subme=11 / psy=1 / fade_compensate=0.00 / psy_rd=1.00:0.00 / mixed_ref=1 / me_range=32 / chroma_me=1 / trellis=2 / 8x8dct=1 / cqm=0 / deadzone=21,11 / fast_pskip=1 / chroma_qp_offset=-2 / threads=12 / lookahead_threads=3 / sliced_threads=0 / nr=0 / decimate=1 / interlaced=0 / bluray_compat=0 / constrained_intra=0 / fgo=0 / bframes=10 / b_pyramid=2 / b_adapt=2 / b_bias=0 / direct=3 / weightb=1 / open_gop=0 / weightp=2 / keyint=250 / keyint_min=24 / scenecut=40 / intra_refresh=0 / rc=crf / mbtree=0 / crf=14.0000 / qcomp=0.65 / qpmin=0 / qpmax=69 / qpstep=4 / ip_ratio=1.25 / pb_ratio=1.20 / aq=1:0.60
Language : English
Default : Yes
Forced : No

Audio #1
ID : 2
Format : AC-3
Format/Info : Audio Coding 3
Mode extension : CM (complete main)
Codec ID : A_AC3
Duration : 1h 51mn
Bit rate mode : Constant
Bit rate : 384 Kbps
Channel(s) : 6 channels
Channel positions : Front: L C R, Side: L R, LFE
Sampling rate : 48.0 KHz
Bit depth : 16 bits
Compression mode : Lossy
Stream size : 306 MiB (5%)
Title : MVO, AC3 5.1 @ 384 kbps
Language : Russian
Default : Yes
Forced : Yes

Audio #2
ID : 3
Format : AC-3
Format/Info : Audio Coding 3
Mode extension : CM (complete main)
Codec ID : A_AC3
Duration : 1h 51mn
Bit rate mode : Constant
Bit rate : 640 Kbps
Channel(s) : 6 channels
Channel positions : Front: L C R, Side: L R, LFE
Sampling rate : 48.0 KHz
Bit depth : 16 bits
Compression mode : Lossy
Stream size : 510 MiB (9%)
Title : AC3 5.1 @ 640 kbps
Language : Swedish
Default : No
Forced : No

Text #1
ID : 4
Format : UTF-8
Codec ID : S_TEXT/UTF8
Codec ID/Info : UTF-8 Plain Text
Title : Елена Володина
Language : Russian
Default : No
Forced : No

Text #2
ID : 5
Format : UTF-8
Codec ID : S_TEXT/UTF8
Codec ID/Info : UTF-8 Plain Text
Language : English
Default : No
Forced : No

Text #3
ID : 6
Format : UTF-8
Codec ID : S_TEXT/UTF8
Codec ID/Info : UTF-8 Plain Text
Title : Forced
Language : Swedish
Default : No
Forced : No

Menu
00:00:00.000 : en:00:00:00.000
00:07:34.917 : en:00:07:34.917
00:11:07.667 : en:00:11:07.667
00:16:27.250 : en:00:16:27.250
00:22:37.458 : en:00:22:37.458
00:26:59.208 : en:00:26:59.208
00:32:50.625 : en:00:32:50.625
00:37:56.083 : en:00:37:56.083
00:44:23.875 : en:00:44:23.875
00:52:53.875 : en:00:52:53.875
00:58:09.583 : en:00:58:09.583
01:08:45.583 : en:01:08:45.583
01:15:48.458 : en:01:15:48.458
01:27:14.625 : en:01:27:14.625
01:31:02.083 : en:01:31:02.083
01:35:21.250 : en:01:35:21.250
01:42:39.917 : en:01:42:39.917
01:47:49.625 : en:01:47:49.625

[/code]
pb.wtf



Скачать Вальс для Моники через торрент http://i63.fastpic.ru/big/2015/0117/ca/faea9f82db8bf53153e8702f0619c4ca.png Скачать фильм Вальс для Моники через торрент бесплантно в хорошем качестве Описание: Моника, девушка из маленького шведского городка, мечтала о ярких огнях джазовых ночных клубов. И ее мечта сбылась - она стала ... 10 10 2
Торрент: Зарегистрирован [2015-01-17 21:01] · скачан: 10 раз
Статус: √ проверено
Размер: 5.84 GB
Как cкачать? Как скачать Вальс для Моники через торрент | qTorrent

% Раздел Тема Автор DL S | L
Фильмы 2013 [DVDrip, WEB-DLRip, HDrip] [ 1.46 GB ] Вальс для Моники / Monica Z [2013 биография HDRip] MVO Ворон Скачать
1 | 0

28-11-2019 20:33  

Отключить всю рекламу на сайте

    Дорогой пользователь! Огромная просьба, поблагодарите релизера, оцените раздачу и оставьте свои комментарий, если Вы скачали Вальс для Моники через торрент бесплатно! Внесите свою лепту в развитие PiratBit!
    Комментировать посты могут только пользователи прошедшие не сложную регистрацию
    Показать сообщения:    

    Вальс для Моники через торрент
    Скачать бесплатно Вальс для Моники
    Вальс для Моники скачать торрент
    Вальс для Моники смотреть онлайн
    Cкачать фильм Вальс для Моники бесплатно
    Вальс для Моники скачать торрент в хорошем качестве
    Вальс для Моники смотреть онлайн бесплатно в хорошем качестве


    Вы не можете начинать темы
    Вы не можете отвечать на сообщения
    Вы не можете редактировать свои сообщения
    Вы не можете удалять свои сообщения
    Вы не можете голосовать в опросах
    Вы не можете прикреплять файлы к сообщениям
    Вы можете скачивать файлы