Ссылка на приватное зеркало нашего сайта всего за 1$. Внимание количество ограничено!!!

2 сезон

iTunes

1 сезон

1

2 сезон

2 сезон

iTunes

1 сезон

RePack

30

Новинка

ВАЖНО

ИГРА 18+

pack

RePack

MK11
pack

Забери бонус

RePack

jed

!!Акция!!

Alien_Rage

RePack

fifa19

RePack

Assassins Creed: Odyssey

RePack

NEED FOR SPEED™ PAYBACK

4 сезон

9 сезон

Бесстыжие 9 сезон

Все сериалы

все сериалы на PB.wtf

RePack

FAR CRY 5
  

Спираль / Helix / Сезон: 2 / Серии 1-13 из 13 (Брэд Тернер / Brad Turner, Джеримайя С. Чечик / Jeremiah S. Chechik, Дуан Кларк / Duane Clark) [2015, США, Канада, фантастика, триллер, WEB-DLRip, MVO] [BaibaKo] pb.wtf

Спираль через торрент pb.wtf

Размер: 7.88 GB | Добавлен: 5 лет 7 мес. назад | Торрент скачан:89 раз
Скачать  

18-01-2015 02:30 Спираль Скачать торрент  

Спираль / Helix
«Правда распространится»


  • Год выпуска: 2015
  • Страна: США, Канада
  • Жанр: фантастика, триллер
  • Продолжительность: 00:41:40 (Серия)
  • Перевод: Профессиональный многоголосый закадровый) [BaibaKo]

  • Режиссер: Брэд Тернер / Brad Turner, Джеримайя С. Чечик / Jeremiah S. Chechik, Дуан Кларк / Duane Clark
  • В ролях:

    Билл Кэмпбелл (Dr. Alan Farragut), Хироюки Санада (Dr. Hiroshi Hatake), Кира Загорски (Dr. Julia Walker), Марк Ганиме (Major Sergio Balleseros), Джордан Хэйес (Dr. Sarah Jordan), Мигвун Фэйрбразер (Daniel Aerov), Нил Напье (Dr. Peter Farragut), Лучана Карро (Anana), Чимвемве Миллер (Dr. Haven), Катрин Лемье (Dr. Doreen Boyle), Эмбер Гольдфарб (Jaye), Патрик Бейби (Dr. Philippe Duchamp)

  • Описание:
    Сериал расскажет о группе учёных из Центра по Борьбе с Заболеваниями, направленных на высокотехнологичную исследовательскую базу в Арктике для расследования возможной вспышки заболевания и вынужденных вести борьбу за спасение человечества.
  • Рейтинг:



  • Качество: WEB-DLRip
  • Формат: :AVI
  • Видео кодек: XviD
  • Аудио кодек: MP3
  • Видео: 720x400 (16:9), 1513 kbps, 24 fps, 0,219 bpp
  • Аудио №1: Русский 2.0 / 48 kHz / 192 kbps /
  • Аудио №2: Английский 2.0 / 48 kHz / 192 kbps /
  • Релиз от: GEKADOL

    Код:

    Внимание! Раздача ведётся путём добавления новых серий; при каждом добавлении создаётся новый торрент. Чтобы начать докачку новой серии, пользователям необходимо сделать следующее:
    (1) остановить скачивание,
    (2) удалить старый торрент у себя из клиента (старые серии удалять не надо),
    (3) скачать новый торрент и запустить его у себя в клиенте вместо старого, при этом указать клиенту путь в старую папку куда и должно происходить скачивание новых серий.
    Ваш клиент при этом должен произвести хеширование (проверку) старой папки (если не производит сам - помогите ему сделать это), и будет докачивать только те серии которых у вас ещё нет. Старые серии при этом не удаляются, а продолжают раздаваться!
    Eсли вы уже удалили старые серии, то предотвратить повторную закачку старых серий можно, отжав галочку в соответствующих местах при запуске нового торрента. По возможности, желательно не удалять старые серии как можно дольше чтобы релизёр не столько продолжал раздавать старые серии, а смог сконцентрироваться на новых.


    Код:

    General
    Complete name                            : I:\Helix (S02) BaibaKo\Helix.s02e01.WEB-DLRip.XviD.Rus.Eng.BaibaKo.tv.avi
    Format                                   : AVI
    Format/Info                              : Audio Video Interleave
    File size                                : 570 MiB
    Duration                                 : 41mn 40s
    Overall bit rate                         : 1 912 Kbps
    Writing application                      : VirtualDubMod 1.5.10.2 (build 2540/release)
    Writing library                          : VirtualDubMod build 2540/release

    Video
    ID                                       : 0
    Format                                   : MPEG-4 Visual
    Format profile                           : Advanced Simple@L5
    Format settings, BVOP                    : 2
    Format settings, QPel                    : No
    Format settings, GMC                     : No warppoints
    Format settings, Matrix                  : Default (H.263)
    Codec ID                                 : XVID
    Codec ID/Hint                            : XviD
    Duration                                 : 41mn 40s
    Bit rate                                 : 1 514 Kbps
    Width                                    : 720 pixels
    Height                                   : 400 pixels
    Display aspect ratio                     : 16:9
    Frame rate                               : 24.000 fps
    Color space                              : YUV
    Chroma subsampling                       : 4:2:0
    Bit depth                                : 8 bits
    Scan type                                : Progressive
    Compression mode                         : Lossy
    Bits/(Pixel*Frame)                       : 0.219
    Stream size                              : 451 MiB (79%)
    Writing library                          : XviD 1.2.1 (UTC 2008-12-04)

    Audio #1
    ID                                       : 1
    Format                                   : MPEG Audio
    Format version                           : Version 1
    Format profile                           : Layer 3
    Mode                                     : Joint stereo
    Mode extension                           : MS Stereo
    Codec ID                                 : 55
    Codec ID/Hint                            : MP3
    Duration                                 : 41mn 40s
    Bit rate mode                            : Constant
    Bit rate                                 : 192 Kbps
    Channel(s)                               : 2 channels
    Sampling rate                            : 48.0 KHz
    Compression mode                         : Lossy
    Stream size                              : 57.2 MiB (10%)
    Alignment                                : Aligned on interleaves
    Interleave, duration                     : 42 ms (1.00 video frame)
    Interleave, preload duration             : 504 ms

    Audio #2
    ID                                       : 2
    Format                                   : MPEG Audio
    Format version                           : Version 1
    Format profile                           : Layer 3
    Mode                                     : Joint stereo
    Mode extension                           : MS Stereo
    Codec ID                                 : 55
    Codec ID/Hint                            : MP3
    Duration                                 : 41mn 40s
    Bit rate mode                            : Constant
    Bit rate                                 : 192 Kbps
    Channel(s)                               : 2 channels
    Sampling rate                            : 48.0 KHz
    Compression mode                         : Lossy
    Stream size                              : 57.2 MiB (10%)
    Alignment                                : Aligned on interleaves
    Interleave, duration                     : 42 ms (1.00 video frame)
    Interleave, preload duration             : 504 ms


    Скриншоты:
    скриншот   скриншот   скриншот   скриншот   скриншот  
    скриншот  

    Раздача ведётся путём добавления новых серий. Добавлена 13 серия (11.04.2015).Просьба перекачать торрент файл.

    pb.wtf



  • Скачать Спираль через торрент http://i64.fastpic.ru/big/2015/0118/86/c86f9c1cbba1ebdefb58de1ee4ba2f86.jpg Скачать фильм Спираль через торрент бесплантно в хорошем качестве Описание: Сериал расскажет о группе учёных из Центра по Борьбе с Заболеваниями, направленных на высокотехнологичную исследовательскую базу ... 9.8 10 17
    Info! Золотая раздача, скачанное не засчитывается.
    Торрент: Зарегистрирован [2015-04-11 16:12] · скачан: 89 раз
    Статус: √ проверено
    Размер: 7.88 GB
    Как cкачать? Как скачать Спираль через торрент | qTorrent

    % Раздел Тема Автор DL S | L
    Зарубежные сериалы [ 22.58 GB ] Спираль / Helix / Сезон: 2 / Серии 1-13 из 13 [2015 WEB-DL 1080p MVO] [BaibaKo] GEKADOL Скачать
    1 | 0
    Зарубежные сериалы [ 16.33 GB ] Спираль / Helix / Сезон: 2 / Серии 1-13 из 13 [2015 WEB-DLRip 720p MVO] [LostFilm] GEKADOL Скачать
    1 | 0
    Зарубежные сериалы [ 5.3 GB ] Спираль / Helix / Сезон: 2 / Серии 1-13 из 13 [2015 WEB-DLRip MVO] [LostFilm] Anonymous Скачать
    1 | 0
    Зарубежные сериалы [ 18.38 GB ] Спираль / Helix / Сезон: 2 / Серии 1-13 из 13 [2015 WEB-DL 720p MVO] [AlexFilm] GEKADOL Скачать
    1 | 0
    Зарубежные сериалы [ 23.17 GB ] Спираль / Helix / Сезон: 2 / Серии 1-13 из 13 [2015 WEB-DLRip 1080p] MVO [LostFilm] GEKADOL Скачать
    1 | 0
    Зарубежные сериалы [ 6.36 GB ] Спираль / Helix / Сезон: 2 / Серии 1-13 из 13 [2015 WEB-DLRip MVO] [AlexFilm] GEKADOL Скачать
    1 | 0


    Последний раз редактировалось: GEKADOL (2015-04-11 16:12), всего редактировалось 12 раз(а)

    28-11-2019 20:33  

    Отключить всю рекламу на сайте

    18-01-2015 03:51 Спираль Скачать торрент  

    ого, как-то даже и не ожидал что второй сезон будет. спасибо за раздачуpb.wtf



    18-01-2015 04:23 Спираль Скачать торрент  

    tamburetko писал(а):

    ого, как-то даже и не ожидал что второй сезон будет. спасибо за раздачу

    pb.wtf



    16-02-2015 04:04 Спираль Скачать торрент  

    очень интересное продолжение-посмотрел три серии с удовольствием-это уже не просто арктика-снег за окнами лаборатории-это уже живописный остров-приятно глазу-хочется на отдых-природа и шашлыкиpb.wtf



    16-02-2015 07:54 Спираль Скачать торрент  

    спасибо выложившему
    качал его прошлую раздачу-доволен
    позолотил
    качайте-понравитсяpb.wtf



    24-03-2015 09:41 Спираль Скачать торрент  

    pb.wtf



      Дорогой пользователь! Огромная просьба, поблагодарите релизера, оцените раздачу и оставьте свои комментарий, если Вы скачали Спираль через торрент бесплатно! Внесите свою лепту в развитие PiratBit!
      Комментировать посты могут только пользователи прошедшие не сложную регистрацию
      Показать сообщения:    

      Спираль через торрент
      Скачать бесплатно Спираль
      Спираль скачать торрент
      Спираль смотреть онлайн
      Cкачать фильм Спираль бесплатно
      Спираль скачать торрент в хорошем качестве
      Спираль смотреть онлайн бесплатно в хорошем качестве


      Вы не можете начинать темы
      Вы не можете отвечать на сообщения
      Вы не можете редактировать свои сообщения
      Вы не можете удалять свои сообщения
      Вы не можете голосовать в опросах
      Вы не можете прикреплять файлы к сообщениям
      Вы можете скачивать файлы