Ссылка на приватное зеркало нашего сайта всего за 1$. Внимание количество ограничено!!!

2 сезон

iTunes

1 сезон

1

2 сезон

2 сезон

iTunes

1 сезон

RePack

30

Ultimate

ВАЖНО

ИГРА 18+

pack

RePack

MK11
pack

Забери бонус

RePack

jed

!!Акция!!

Alien_Rage

RePack

fifa19

RePack

Assassins Creed: Odyssey

RePack

NEED FOR SPEED™ PAYBACK

4 сезон

9 сезон

Бесстыжие 9 сезон

Все сериалы

все сериалы на PB.wtf

RePack

FAR CRY 5
  

12 обезьян / 12 Monkeys / Сезон: 1 / Серии 1-13 из 13 (Дэвид Гроссман / David Grossman, Майкл Ваксман / Michael Waxman, Джон Бэдэм / John Badham) [2015, США, фантастика, триллер, драма, WEB-DLRip] MVO [BaibaKo] pb.wtf

12 обезьян через торрент pb.wtf

Размер: 7.54 GB | Добавлен: 5 лет 7 мес. назад | Торрент скачан:180 раз
Скачать  

18-01-2015 03:02 12 обезьян Скачать торрент  

12 обезьян / 12 Monkeys


  • Год выпуска: 2015
  • Страна: США
  • Жанр: фантастика, триллер, драма, детектив, приключения
  • Продолжительность: 00:47:11 (Серия)
  • Перевод: Профессиональный многоголосый закадровый) [BaibaKo]

  • Режиссер: Дэвид Гроссман / David Grossman, Майкл Ваксман / Michael Waxman, Джон Бэдэм / John Badham
  • В ролях:

    Аарон Стэнфорд (Cole), Аманда Шулл (Dr. Cassandra Railly), Кирк Асеведо (Ramses), Ной Бин (Aaron Marker), Демор Барнс (Whitley), Рамон Де Окампо (Oliver Peters), Benjamin Meranda (Samuel), Алисен Даун (Striking Woman), Барбара Зукова (Jones), Эмили Хэмпшир (Jennifer Goines), Brianna Andrade-Gomes (Teenage Street Girl), Ксандер Беркли (Col. Jonathan Foster)

  • Описание:
    Коул является уголовником из постапокалиптического будущего. Его осудили за дерзкое поведение и неподчинение властям. В конце девяностых некий вирус уничтожил почти всю популяцию людей, а те, кому удалось выжить, укрылись под землей. В то время ученые уже изобрели технологию путешествия во времени, и Коул стал «морской свинкой», на которой эту технологию решили испытать. Он должен добыть для изучения образцы вируса из прошлого и за это получит полное прощение за все содеянное.
  • Рейтинг:



  • Качество: WEB-DLRip
  • Формат: :AVI
  • Видео кодек: XviD
  • Аудио кодек: MP3
  • Видео: 720x400 (16:9), 1499 kbps, 24 fps, 0,217 bpp
  • Аудио №1: Русский 2.0 / 48 kHz / 192 kbps
  • Аудио №2: Английский 2.0 / 48 kHz / 192 kbps
  • Релиз от: GEKADOL

    Код:

    Внимание! Раздача ведётся путём добавления новых серий; при каждом добавлении создаётся новый торрент. Чтобы начать докачку новой серии, пользователям необходимо сделать следующее:
    (1) остановить скачивание,
    (2) удалить старый торрент у себя из клиента (старые серии удалять не надо),
    (3) скачать новый торрент и запустить его у себя в клиенте вместо старого, при этом указать клиенту путь в старую папку куда и должно происходить скачивание новых серий.
    Ваш клиент при этом должен произвести хеширование (проверку) старой папки (если не производит сам - помогите ему сделать это), и будет докачивать только те серии которых у вас ещё нет. Старые серии при этом не удаляются, а продолжают раздаваться!
    Eсли вы уже удалили старые серии, то предотвратить повторную закачку старых серий можно, отжав галочку в соответствующих местах при запуске нового торрента. По возможности, желательно не удалять старые серии как можно дольше чтобы релизёр не столько продолжал раздавать старые серии, а смог сконцентрироваться на новых.


    Код:

    General
    Complete name                            : I:\12 Monkeys (S01) BaibaKo\12.Monkeys.s01e01.WEB-DLRip.XviD.Rus.Eng.BaibaKo.tv.avi
    Format                                   : AVI
    Format/Info                              : Audio Video Interleave
    File size                                : 641 MiB
    Duration                                 : 47mn 11s
    Overall bit rate                         : 1 898 Kbps
    Writing application                      : VirtualDubMod 1.5.10.2 (build 2540/release)
    Writing library                          : VirtualDubMod build 2540/release

    Video
    ID                                       : 0
    Format                                   : MPEG-4 Visual
    Format profile                           : Advanced Simple@L5
    Format settings, BVOP                    : 2
    Format settings, QPel                    : No
    Format settings, GMC                     : No warppoints
    Format settings, Matrix                  : Default (H.263)
    Codec ID                                 : XVID
    Codec ID/Hint                            : XviD
    Duration                                 : 47mn 11s
    Bit rate                                 : 1 500 Kbps
    Width                                    : 720 pixels
    Height                                   : 400 pixels
    Display aspect ratio                     : 16:9
    Frame rate                               : 24.000 fps
    Color space                              : YUV
    Chroma subsampling                       : 4:2:0
    Bit depth                                : 8 bits
    Scan type                                : Progressive
    Compression mode                         : Lossy
    Bits/(Pixel*Frame)                       : 0.217
    Stream size                              : 506 MiB (79%)
    Writing library                          : XviD 1.2.1 (UTC 2008-12-04)

    Audio #1
    ID                                       : 1
    Format                                   : MPEG Audio
    Format version                           : Version 1
    Format profile                           : Layer 3
    Mode                                     : Joint stereo
    Mode extension                           : MS Stereo
    Codec ID                                 : 55
    Codec ID/Hint                            : MP3
    Duration                                 : 47mn 11s
    Bit rate mode                            : Constant
    Bit rate                                 : 192 Kbps
    Channel(s)                               : 2 channels
    Sampling rate                            : 48.0 KHz
    Compression mode                         : Lossy
    Stream size                              : 64.8 MiB (10%)
    Alignment                                : Aligned on interleaves
    Interleave, duration                     : 42 ms (1.00 video frame)
    Interleave, preload duration             : 504 ms

    Audio #2
    ID                                       : 2
    Format                                   : MPEG Audio
    Format version                           : Version 1
    Format profile                           : Layer 3
    Mode                                     : Joint stereo
    Mode extension                           : MS Stereo
    Codec ID                                 : 55
    Codec ID/Hint                            : MP3
    Duration                                 : 47mn 11s
    Bit rate mode                            : Constant
    Bit rate                                 : 192 Kbps
    Channel(s)                               : 2 channels
    Sampling rate                            : 48.0 KHz
    Compression mode                         : Lossy
    Stream size                              : 64.8 MiB (10%)
    Alignment                                : Aligned on interleaves
    Interleave, duration                     : 42 ms (1.00 video frame)
    Interleave, preload duration             : 504 ms


    Скриншоты:
    скриншот   скриншот   скриншот   скриншот   скриншот  
    скриншот  

    Раздача ведётся путём добавления новых серий. Добавлена 13 серия (13.04.2015).Просьба перекачать торрент файл.

    pb.wtf



  • Скачать 12 обезьян через торрент http://i64.fastpic.ru/big/2015/0118/7f/d0899080745385c31d7de9751149e07f.jpg Скачать фильм 12 обезьян через торрент бесплантно в хорошем качестве Описание: Коул является уголовником из постапокалиптического будущего. Его осудили за дерзкое поведение и неподчинение властям. В конце ... 9.3 10 24
    Info! Золотая раздача, скачанное не засчитывается.
    Торрент: Зарегистрирован [2015-04-13 01:55] · скачан: 180 раз
    Статус: √ проверено
    Размер: 7.54 GB
    Как cкачать? Как скачать 12 обезьян через торрент | qTorrent

    % Раздел Тема Автор DL S | L
    Зарубежные сериалы [ 18.25 GB ] 12 обезьян / 12 Monkeys / Сезон: 1 / Серии: 1-7 из 13 [2015 WEB-DL-HEVC 1080p] MVO [TVShows] bober100 Скачать
    1 | 0
    Зарубежные сериалы [ 20.81 GB ] 12 обезьян / 12 Monkeys / Сезон: 1 / Серии: 1-13 из 13 [2015 WEB-DL 720p] MVO [TVShows] bober100 Скачать
    1 | 0
    Зарубежные сериалы [ 22.55 GB ] 12 обезьян / 12 Monkeys / Сезон: 2 / Серии 1-13 из 13 [2016 WEB-DL 1080р] MVO [BaibaKo] GEKADOL Скачать
    1 | 0
    Зарубежные сериалы [ 16.69 GB ] 12 обезьян / 12 Monkeys / Сезон: 1 / Серии 1-13 из 13 [2014 WEB-DLRip 720p] MVO [LostFilm] GEKADOL Скачать
    1 | 0
    Зарубежные сериалы [ 5.42 GB ] 12 обезьян / 12 Monkeys / Сезон: 1 / Серии 1-13 из 13 [2014 WEB-DLRip MVO] [LostFilm] GEKADOL Скачать
    2 | 0
    Зарубежные сериалы [ 125.12 GB ] 12 обезьян / 12 Monkeys / Сезон: 1 / Серии 1-13 из 13 [2015 BD Remux Lostfilm Ворон Скачать
    1 | 0
    Зарубежные сериалы [ 11.17 GB ] 12 обезьян / 12 Monkeys / Сезон: 2 / Серии 1-13 из 13 [2016 WEB-DLRip-AVC] MVO [BaibaKo] GEKADOL Скачать
    1 | 0


    Последний раз редактировалось: GEKADOL (2015-04-13 01:55), всего редактировалось 13 раз(а)

    28-11-2019 20:33  

    Отключить всю рекламу на сайте

    20-01-2015 07:09 12 обезьян Скачать торрент  

    Поправь шапку "Сирии"pb.wtf



    21-01-2015 10:39 12 обезьян Скачать торрент  

    monstrare писал(а):

    Поправь шапку "Сирии"

    pb.wtf



      Дорогой пользователь! Огромная просьба, поблагодарите релизера, оцените раздачу и оставьте свои комментарий, если Вы скачали 12 обезьян через торрент бесплатно! Внесите свою лепту в развитие PiratBit!
      Комментировать посты могут только пользователи прошедшие не сложную регистрацию
      Показать сообщения:    

      12 обезьян через торрент
      Скачать бесплатно 12 обезьян
      12 обезьян скачать торрент
      12 обезьян смотреть онлайн
      Cкачать фильм 12 обезьян бесплатно
      12 обезьян скачать торрент в хорошем качестве
      12 обезьян смотреть онлайн бесплатно в хорошем качестве


      Вы не можете начинать темы
      Вы не можете отвечать на сообщения
      Вы не можете редактировать свои сообщения
      Вы не можете удалять свои сообщения
      Вы не можете голосовать в опросах
      Вы не можете прикреплять файлы к сообщениям
      Вы можете скачивать файлы