2 сезон

iTunes

MVO

1

2 сезон

iTunes

iTunes

1 сезон

RePack

30

Ultimate

ВАЖНО

ИГРА 18+

pack

RePack

MK11
pack

Легкие деньги

RePack

jed

RePack

fifa19

RePack

RDR2

RePack

NEED FOR SPEED™ PAYBACK

4 сезон

9 сезон

Бесстыжие 9 сезон

Все сериалы

все сериалы на PB.wtf

RePack

FAR CRY 5

Anonymous, доброй ночи, мы не успеваем собрать деньги на оплату серверов за декабрь и январь, помогите нам пожалуйста в это трудное время. В качестве благодарности мы отключим Вам всю рекламу на сайте (укажите свой ник в строку Ваше имя)!

×
  
Magnet ссылка

Первопроходец / Pioneer (Эрик Шёлдбьерг ) [2013, триллер, HDRip, Профессиональный (двухголосый)(Студия NLS) pb.wtf

Первопроходец через торрент pb.wtf

Размер: 2.04 GB | Добавлен: 5 лет 11 мес. назад | Торрент скачан:444 раза
Скачать  

18-01-2015 05:22 Первопроходец Скачать торрент  


Первопроходец / Pioneer


Год выпуска:2013
Страна:Норвегия, Германия, Швеция, Франция, Финляндия
Жанр:триллер
Продолжительность: 01:51:14
Перевод:Профессиональный (двухголосый)(Студия NLS)
Режиссер:Эрик Шёлдбьерг
В ролях:

Уэс Бентли (Mike), Аксель Хенни (Petter), Стивен Лэнг (Ferris), Стефани Сигман (Maria), Джонатан ЛаПалья (Ronald), Эни Даль Торп (Pia), Ёрген Лангхелле (Leif), Андре Эриксен (Knut), Арни Линдтнер Нэсс (Minister), Йеркер Фальстрём (Jørgen's father), Эндре Хеллествейт (Trond), Янне Хелтберг (Trude)
  • Описание:
    Начало 1980-х гг. В Северном море обнаружены огромные запасы нефти и газа. В начале норвежского нефтяного бума власти намерены любой ценой доставлять на берег «черное» и «голубое золото» планеты по трубопроводу с глубины 500 метров, перед этим проводя разведку месторождения. Профессиональный дайвер Петтер, одержимый идеей достижения дна Норвежского моря, - полон решимости, силы и мужества, чтобы браться за самую опасную в мире работу и спуститься на эту глубину. Но неожиданная случайность меняет все. И теперь Петтер отправляется в опасное путешествие, в котором он теряет из вида того, кто дергает за ниточки в этой многомиллионной игре, постепенно понимая, что он оказывается на его пути и что его жизнь находится под угрозой.


    Качество: HDRip
    Формат:AVI
    Видео кодек: XviD
    Аудио кодек:AC3
    Видео: XviD, 720x304 (2.35:1), 197 kbps, 24 fps, 0,038 bpp
    Аудио №1: AC3 / 2.0 / 48 kHz / 192 kbps / Русский
    Аудио №2: AC3 / 2.0 / 48 kHz / 224 kbps /норвежский

    Код:

    General
    Complete name                            : D:\Торенты\Pioneer (2013) HDRip.avi
    Format                                   : AVI
    Format/Info                              : Audio Video Interleave
    Format profile                           : OpenDML
    Format settings                          : rec
    File size                                : 2.04 GiB
    Duration                                 : 1h 51mn
    Overall bit rate                         : 2 631 Kbps
    Writing application                      : AVI-Mux GUI 1.17.8.3, Feb 16 201019:42:50

    Video
    ID                                       : 0
    Format                                   : MPEG-4 Visual
    Codec ID                                 : XVID
    Codec ID/Hint                            : XviD
    Duration                                 : 1h 51mn
    Source duration                          : 10mn 28s
    Bit rate                                 : 197 Kbps
    Width                                    : 720 pixels
    Height                                   : 304 pixels
    Display aspect ratio                     : 2.35:1
    Frame rate                               : 24.000 fps
    Color space                              : YUV
    Chroma subsampling                       : 4:2:0
    Compression mode                         : Lossy
    Bits/(Pixel*Frame)                       : 0.038
    Stream size                              : 157 MiB (7%)

    Audio #1
    ID                                       : 1
    Format                                   : AC-3
    Format/Info                              : Audio Coding 3
    Codec ID                                 : 2000
    Duration                                 : 1h 51mn
    Source duration                          : 10mn 28s
    Bit rate mode                            : Constant
    Bit rate                                 : 192 Kbps
    Channel(s)                               : 2 channels
    Sampling rate                            : 48.0 KHz
    Compression mode                         : Lossy
    Stream size                              : 14.4 MiB (1%)
    Alignment                                : Aligned on interleaves
    Interleave, duration                     : 64 ms (1.54 video frames)
    Interleave, preload duration             : 192 ms
    Title                                    : Rus_152

    Audio #2
    ID                                       : 2
    Format                                   : AC-3
    Format/Info                              : Audio Coding 3
    Codec ID                                 : 2000
    Duration                                 : 1h 51mn
    Source duration                          : 10mn 28s
    Bit rate mode                            : Constant
    Bit rate                                 : 224 Kbps
    Channel(s)                               : 2 channels
    Sampling rate                            : 48.0 KHz
    Compression mode                         : Lossy
    Stream size                              : 16.8 MiB (1%)
    Alignment                                : Aligned on interleaves
    Interleave, duration                     : 64 ms (1.54 video frames)
    Interleave, preload duration             : 192 ms
    Title                                    : Eng_178


    Скриншоты:

    Каталог Новинок (Фильмы-трейлеры, Игры, Сериалы, Мультфильмы)

    © Оформление by Ворон
    pb.wtf



  • Скачать Первопроходец через торрент http://pic.kartinco.top/images/6/ordi9.jpg Скачать фильм Первопроходец через торрент бесплантно в хорошем качестве Описание:Начало 1980-х гг. В Северном море обнаружены огромные запасы нефти и газа. В начале норвежского нефтяного бума власти намерены ... 9.1 10 13
    Торрент: Зарегистрирован [2015-01-18 05:22] · скачан: 444 раз
    Статус: √ проверено
    Размер: 2.04 GB
    Как cкачать? Как скачать Первопроходец через торрент | UTorrent

    % Раздел Тема Автор DL S | L
    Фильмы [HD 720p, 1080p] (Хороший звук DUB, MVO) [ 8.79 GB ] Первопроходец / Pioneer [2013 BDRip 1080p Ворон Скачать
    1 | 0
    Фильмы 2013 [DVDrip, WEB-DLRip, HDrip] [ 1.46 GB ] Первопроходец / Pioneer [2013 Норвегия Германия Швеция Финляндия HDRip [студия NLS] GEKADOL Скачать
    1 | 0
    T Фильмы 2013 (Звук TS, Cam, VO, DVO) [ 1.36 GB ] Первопроходец / Pioneer [2013 Норвегия Германия Швеция Финляндия HDRipЛюбительский [datynet] Ворон Скачать
    1 | 0

    28-11-2019 20:33  

    Отключить всю рекламу на сайте

      Дорогой пользователь! Огромная просьба, поблагодарите релизера, оцените раздачу и оставьте свои комментарий, если Вы скачали Первопроходец через торрент бесплатно! Внесите свою лепту в развитие PiratBit!
      Комментировать посты могут только пользователи прошедшие не сложную регистрацию
      Показать сообщения:    

      Первопроходец через торрент
      Скачать бесплатно Первопроходец
      Первопроходец скачать торрент
      Первопроходец смотреть онлайн
      Cкачать фильм Первопроходец бесплатно
      Первопроходец скачать торрент в хорошем качестве
      Первопроходец смотреть онлайн бесплатно в хорошем качестве


      Вы не можете начинать темы
      Вы не можете отвечать на сообщения
      Вы не можете редактировать свои сообщения
      Вы не можете удалять свои сообщения
      Вы не можете голосовать в опросах
      Вы не можете прикреплять файлы к сообщениям
      Вы можете скачивать файлы