Всегда рабочее зеркало просто перед .vidak.icu напиши любое слово или цифру, Пример http://do7.vidak.icu

>

7.4

iTunes

7.4

2 сезон

6.6

iTunes

1

7.4

2 сезон

7.2

iTunes

6.0

MVO

13

6.1

iTunes

8.3

Пиратка

30

ULTIMATE

pack

9.9

Лицензия

ВАЖНО

ИГРА 18+

pack

7.3

RePack

MK11

7.7

RePack

jed

7.8

RePack

fifa19

8.5

RePack

RDR2

RePack

NEED FOR SPEED™ PAYBACK

1 сезон

9 сезон

Бесстыжие 9 сезон

Все сериалы

все сериалы на PB.wtf

RePack

FAR CRY 5

Anonymous, добрый день, мы катастрофически не успеваем собрать деньги на оплату серверов, помогите нам пожалуйста 5,10,15р., для нас важна любая помощь . В качестве благодарности мы отключим Вам всю рекламу на сайте (укажите свой ник в строку Ваше имя)!

×
  
Magnet ссылка

Занесло / Redirected (Эмилис Веливис ) [2014, боевик, триллер, комедия, WEBRip 720p, Авторский (одноголосый) (Doctor Jocker) pb.wtf

Занесло через торрент pb.wtf

Размер: 3 GB | Добавлен: 7 лет назад | Торрент скачан:145 раз
Смотреть онлайн Занесло | Скачать    Ребята, помогите собрать деньги на оплату серверов!!!

18-01-2015 06:10 Занесло Скачать торрент  


Занесло / Redirected


Год выпуска:2014
Страна: Литва, Великобритания
Жанр:боевик, триллер, комедия, криминал
Продолжительность:01:39:03
Перевод:Авторский (одноголосый) (Doctor Jocker)
Режиссер:Эмилис Веливис

  • В ролях:

    Винни Джонс (Golden Pole), Скот Уильямс (Michael), Гил Дарнелл (Johnny), Оливер Джексон (Tim), Энтони Страхан (Ben), Андрюс Жюраускас (Staska), Витаутас Шапранаускас (Algis), Артур Смольянинов (Doncius), Вита Сяусюнайте (Saule), Моника (Simona), Дэниэл-Джон Уильямс (Golden Pole's Hitman 'Barman'), Дэниэл Неме (Turk)
  • Описание:
    Картина повествует о необычайных приключениях в Литве четырёх англичан - Майкла, Джонни, Бена и Тима. После удачного налёта в Лондоне на нелегальное казино, «славная четвёрка» садится в самолет, летящий в Малайзию. Кажется, все идёт по плану. Но... Никто не мог предусмотреть проделок вулкана Эйяфьядлайёкюдля, извержение которого вынудило самолет с англичанами сесть в Вильнюсе. Мало того, помимо местных разборок и приключений на все части тела, друзьям приходится спасаться от жаждущего мести владельца ограбленного казино.

  • Мировая премьера:10 января 2014

    Качество: WEBRip 720p
    Формат:MKV
    Видео кодек: AVC
    Аудио кодек:AC3
    Видео: AVC, 1280x536 (2.40:1), 3871 kbps, 23,976 fps, 0,235 bpp
    Аудио: русский / AC3 / 5.1 / 48 kHz / 384 kbps / 16 bit ||


    Код:

    General
    Unique ID                                : 205321169304265333016139853060898614784 (0x9A776B37A78619EAA9305288A4FCEE00)
    Complete name                            : D:\Торенты\Redirected.2014.720p.Doctor.Joker.mkv
    Format                                   : Matroska
    Format version                           : Version 4 / Version 2
    File size                                : 3.00 GiB
    Duration                                 : 1h 39mn
    Overall bit rate                         : 4 342 Kbps
    Movie name                               : Релиз Переулка Переводмана
    Encoded date                             : UTC 2015-01-17 14:01:44
    Writing application                      : mkvmerge v6.0.0 ('Coming Up For Air') built on Jan 20 2013 09:52:00
    Writing library                          : libebml v1.3.0 + libmatroska v1.4.0
    Attachment                               : Poster.jpg

    Video
    ID                                       : 1
    Format                                   : AVC
    Format/Info                              : Advanced Video Codec
    Format profile                           : Main@L3.1
    Format settings, CABAC                   : No
    Format settings, ReFrames                : 2 frames
    Codec ID                                 : V_MPEG4/ISO/AVC
    Duration                                 : 1h 39mn
    Bit rate                                 : 3 872 Kbps
    Width                                    : 1 280 pixels
    Height                                   : 536 pixels
    Display aspect ratio                     : 2.40:1
    Frame rate                               : 23.976 fps
    Color space                              : YUV
    Chroma subsampling                       : 4:2:0
    Bit depth                                : 8 bits
    Scan type                                : Progressive
    Bits/(Pixel*Frame)                       : 0.235
    Stream size                              : 2.68 GiB (89%)
    Title                                    : x264
    Language                                 : English
    Default                                  : Yes
    Forced                                   : No
    Color primaries                          : BT.709-5, BT.1361, IEC 61966-2-4, SMPTE RP177
    Transfer characteristics                 : BT.709-5, BT.1361
    Matrix coefficients                      : BT.709-5, BT.1361, IEC 61966-2-4 709, SMPTE RP177

    Audio
    ID                                       : 2
    Format                                   : AC-3
    Format/Info                              : Audio Coding 3
    Mode extension                           : CM (complete main)
    Codec ID                                 : A_AC3
    Duration                                 : 1h 39mn
    Bit rate mode                            : Constant
    Bit rate                                 : 384 Kbps
    Channel(s)                               : 6 channels
    Channel positions                        : Front: L C R, Side: L R, LFE
    Sampling rate                            : 48.0 KHz
    Bit depth                                : 16 bits
    Compression mode                         : Lossy
    Stream size                              : 272 MiB (9%)
    Title                                    : AVO А.Матвеев
    Language                                 : Russian
    Default                                  : Yes
    Forced                                   : No

    Скриншоты:

    Каталог Новинок (Фильмы-трейлеры, Игры, Сериалы, Мультфильмы)

    © Оформление by Ворон
    pb.wtf



  • Скачать Занесло через торрент https://pic1.kartinco.top/images/61/ordi9.jpg Скачать, смотреть онлайн Занесло бесплантно в хорошем качестве Описание:Картина повествует о необычайных приключениях в Литве четырёх англичан - Майкла, Джонни, Бена и Тима. После удачного налёта в ... 8.8 10 6
    Торрент: Зарегистрирован [2015-01-18 06:10] · скачан: 145 раз
    Статус: T временная
    Размер: 3 GB
    Как cкачать? Как скачать Занесло через торрент | UTorrent

    % Раздел Тема Автор DL S | L
    T Фильмы 2014 [DVDrip, WEB-DLRip, HDrip] [ 1.37 GB ] Занесло / Redirected [2014 WEB-DLRip Любительский многоголосый [Студия "Paradox"] кэп Скачать
    2 | 0
    Фильмы с украинским озвучиванием [ 1.45 GB ] Занесло / Redirected [2014 BDRip] 2x[Ukr] killermax2013 Скачать
    1 | 0
    Фильмы [HD 720p, 1080p] (Хороший звук DUB, MVO) [ 6.96 GB ] Занесло / Redirected [2014 BDRip 720p] 2xAVO MVO _denis_100 Скачать
    1 | 0
    Фильмы (Blu-ray, BD-Remux, HDDVD) [ 25.63 GB ] Занесло / Redirected [2014 Blu-ray Remux MVO+AVO] Ворон Скачать
    1 | 0
    Фильмы [HD 720p, 1080p] (Хороший звук DUB, MVO) [ 9.22 GB ] Занесло / Redirected [2014 BDRip 720p MVO+AVO] Ворон Скачать
    1 | 0
    Фильмы с авторской озвучкой [ 1.46 GB ] Занесло / Redirected [2014 WEB-DLRip Авторский Ворон Скачать
    1 | 0
    T Фильмы 2014 (Звук TS, Cam, VO, DVO) [ 947 MB ] Занесло / Redirected [2014 WebRip Любительский одноголосый][RAIM] Ворон Скачать
    1 | 0

    28-11-2019 20:33  

    Отключить всю рекламу на сайте

    18-01-2015 09:10 Занесло Скачать торрент  

    Вот это название "Эйяфьядлайёкюдля" !!! sarcasticpb.wtf



      Дорогой пользователь! Огромная просьба, поблагодарите релизера, оцените раздачу и оставьте свои комментарий, если Вы скачали Занесло через торрент бесплатно!
      Комментировать посты могут только пользователи прошедшие не сложную регистрацию
      Показать сообщения:    

      Занесло через торрент
      Скачать бесплатно Занесло
      Занесло скачать торрент
      Занесло смотреть онлайн
      Cкачать фильм Занесло бесплатно
      Занесло скачать торрент в хорошем качестве
      Занесло смотреть онлайн бесплатно в хорошем качестве


      Вы не можете начинать темы
      Вы не можете отвечать на сообщения
      Вы не можете редактировать свои сообщения
      Вы не можете удалять свои сообщения
      Вы не можете голосовать в опросах
      Вы не можете прикреплять файлы к сообщениям
      Вы можете скачивать файлы