Ссылка на приватное зеркало нашего сайта всего за 1$. Внимание количество ограничено!!!

2 сезон

iTunes

1 сезон

1

2 сезон

2 сезон

iTunes

1 сезон

RePack

30

Новинка

ВАЖНО

ИГРА 18+

pack

RePack

MK11
pack

Забери бонус

RePack

jed

!!Акция!!

Alien_Rage

RePack

fifa19

RePack

Assassins Creed: Odyssey

RePack

NEED FOR SPEED™ PAYBACK

4 сезон

9 сезон

Бесстыжие 9 сезон

Все сериалы

все сериалы на PB.wtf

RePack

FAR CRY 5
  

Спасти генерала Яна / Yang jia jiang (Ронни Ю ) [2013, приключения, биография, BDRip 720p, VO+DVO] pb.wtf

Спасти генерала Яна через торрент pb.wtf

Размер: 4.51 GB | Добавлен: 5 лет 10 мес. назад | Торрент скачан:45 раз
Скачать  

18-01-2015 06:34 Спасти генерала Яна Скачать торрент  


Спасти генерала Яна / Yang jia jiang
«Among 3000 Warriors, a Father and his 7 Sons, none but 1 shall live»

Год выпуска:2013
Страна: Гонконг, Китай
Жанр:приключения, биография
Продолжительность:01:41:53
Перевод:Любительский (одноголосый), Любительский (двухголосый)
Субтитры: русские, английские,
Режиссер:Ронни Ю

  • В ролях:

    Сюй Фань (Yang's Wife), Адам Чэн (General Yang), Экин Чэн (Yang's Eldest Son), Бо Юй (Yang's Second Son), Вик Чоу (Yang's Third Son), Ли Чэнь (Yang's Forth Son), Рэймонд Лам (Yang's Fifth Son), Чун Ву (Yang's Sixth Son), Синьбо Фу (Yang's Youngest Son), Шао Бин (Yelü Yuan), Виви Ли (Zhang Jin Ding), Чжан Донг (3rd Lady)
  • Описание:
    Во времена династии Сун семья Ян была одним из наиболее влиятельных семейств в китайской империи. Когда генерал Ян в результате предательства попал в ловушку, семь его сыновей отправляются спасать отца.

  • Мировая премьера:26 октября 2012

    Качество: BDRip 720p
    Формат:MKV
    Видео кодек: AVC
    Аудио кодек:AC3
    Видео: AVC, 1280x534 (2.40:1), 4869 kbps, 24 fps, 0,297 bpp
    Аудио №1: русский / AC3 / 5.1 / 48 kHz / 448 kbps / 16 bit || [Любительское (одноголосое) [den904]
    Аудио №2: русский / AC3 / 5.1 / 48 kHz / 384 kbps / 16 bit || [Любительское (двухголосое) [Ворон и Миса]
    Аудио №3: китайский / AC3 / 5.1 / 48 kHz / 640 kbps / 16 bit
    Навигация по главам: есть


    Код:

    General
    Unique ID                                : 220650226187928651276628141219583115683 (0xA5FFB012AF6EEE29B4F5E6CFA6B841A3)
    Complete name                            : D:\Торенты\Saving.General.Yang.2013.BDRip.720p..mkv
    Format                                   : Matroska
    Format version                           : Version 4 / Version 2
    File size                                : 4.51 GiB
    Duration                                 : 1h 41mn
    Overall bit rate                         : 6 336 Kbps
    Movie name                               : CINEMANIA.CC
    Encoded date                             : UTC 2013-10-31 13:40:15
    Writing application                      : mkvmerge v6.5.0 ('Isn't she lovely') built on Oct 20 2013 12:50:05
    Writing library                          : libebml v1.3.0 + libmatroska v1.4.1

    Video
    ID                                       : 1
    Format                                   : AVC
    Format/Info                              : Advanced Video Codec
    Format profile                           : High@L4.1
    Format settings, CABAC                   : Yes
    Format settings, ReFrames                : 12 frames
    Codec ID                                 : V_MPEG4/ISO/AVC
    Duration                                 : 1h 41mn
    Bit rate                                 : 4 869 Kbps
    Width                                    : 1 280 pixels
    Height                                   : 534 pixels
    Display aspect ratio                     : 2.40:1
    Frame rate                               : 24.000 fps
    Color space                              : YUV
    Chroma subsampling                       : 4:2:0
    Bit depth                                : 8 bits
    Scan type                                : Progressive
    Bits/(Pixel*Frame)                       : 0.297
    Stream size                              : 3.37 GiB (75%)
    Title                                    : CINEMANIA.CC
    Writing library                          : x264 core 124 r2197+666+28 3970b70 tMod+MixAQ [8-bit@4:2:0 X86_64]
    Encoding settings                        : cabac=1 / ref=12 / deblock=1:-2:-2 / analyse=0x3:0x133 / me=umh / subme=11 / psy=1 / fade_compensate=0.00 / psy_rd=1.05:0.10 / mixed_ref=1 / me_range=32 / chroma_me=1 / trellis=2 / 8x8dct=1 / cqm=0 / deadzone=21,11 / fast_pskip=0 / chroma_qp_offset=-3 / threads=18 / sliced_threads=0 / nr=0 / decimate=1 / interlaced=0 / bluray_compat=0 / constrained_intra=0 / fgo=0 / bframes=8 / b_pyramid=2 / b_adapt=2 / b_bias=0 / direct=3 / weightb=1 / open_gop=0 / weightp=2 / keyint=250 / keyint_min=24 / scenecut=40 / intra_refresh=0 / rc=2pass / mbtree=0 / bitrate=4869 / ratetol=1.0 / qcomp=0.70 / qpmin=0 / qpmax=69 / qpstep=4 / cplxblur=20.0 / qblur=0.5 / ip_ratio=1.40 / pb_ratio=1.30 / aq=3 / aq-strength=0.80 / aq-sensitivity=10.00 / aq-ifactor=1.00 / aq-pfactor=1.00 / aq-bfactor=1.00 / aq2=0
    Language                                 : Chinese
    Default                                  : Yes
    Forced                                   : No
    Matrix coefficients                      : BT.709-5, BT.1361, IEC 61966-2-4 709, SMPTE RP177

    Audio #1
    ID                                       : 2
    Format                                   : AC-3
    Format/Info                              : Audio Coding 3
    Mode extension                           : CM (complete main)
    Codec ID                                 : A_AC3
    Duration                                 : 1h 41mn
    Bit rate mode                            : Constant
    Bit rate                                 : 448 Kbps
    Channel(s)                               : 6 channels
    Channel positions                        : Front: L C R, Side: L R, LFE
    Sampling rate                            : 48.0 KHz
    Bit depth                                : 16 bits
    Compression mode                         : Lossy
    Stream size                              : 326 MiB (7%)
    Title                                    : den904
    Language                                 : Russian
    Default                                  : Yes
    Forced                                   : Yes

    Audio #2
    ID                                       : 3
    Format                                   : AC-3
    Format/Info                              : Audio Coding 3
    Mode extension                           : CM (complete main)
    Codec ID                                 : A_AC3
    Duration                                 : 1h 41mn
    Bit rate mode                            : Constant
    Bit rate                                 : 384 Kbps
    Channel(s)                               : 6 channels
    Channel positions                        : Front: L C R, Side: L R, LFE
    Sampling rate                            : 48.0 KHz
    Bit depth                                : 16 bits
    Compression mode                         : Lossy
    Stream size                              : 280 MiB (6%)
    Title                                    : Ворон и Миса
    Language                                 : Russian
    Default                                  : No
    Forced                                   : No

    Audio #3
    ID                                       : 4
    Format                                   : AC-3
    Format/Info                              : Audio Coding 3
    Mode extension                           : CM (complete main)
    Codec ID                                 : A_AC3
    Duration                                 : 1h 41mn
    Bit rate mode                            : Constant
    Bit rate                                 : 640 Kbps
    Channel(s)                               : 6 channels
    Channel positions                        : Front: L C R, Side: L R, LFE
    Sampling rate                            : 48.0 KHz
    Bit depth                                : 16 bits
    Compression mode                         : Lossy
    Delay relative to video                  : 167ms
    Stream size                              : 466 MiB (10%)
    Language                                 : Chinese
    Default                                  : No
    Forced                                   : No

    Text #1
    ID                                       : 5
    Format                                   : UTF-8
    Codec ID                                 : S_TEXT/UTF8
    Codec ID/Info                            : UTF-8 Plain Text
    Language                                 : Russian
    Default                                  : No
    Forced                                   : No

    Text #2
    ID                                       : 6
    Format                                   : UTF-8
    Codec ID                                 : S_TEXT/UTF8
    Codec ID/Info                            : UTF-8 Plain Text
    Language                                 : English
    Default                                  : No
    Forced                                   : No

    Menu
    00:00:00.000                             : en:00:00:00.000
    00:04:24.791                             : en:00:04:24.791
    00:11:40.875                             : en:00:11:40.875
    00:15:10.875                             : en:00:15:10.875
    00:18:45.291                             : en:00:18:45.291
    00:24:23.375                             : en:00:24:23.375
    00:32:02.958                             : en:00:32:02.958
    00:36:16.625                             : en:00:36:16.625
    00:40:39.958                             : en:00:40:39.958
    00:45:28.000                             : en:00:45:28.000
    00:51:02.250                             : en:00:51:02.250
    00:56:22.250                             : en:00:56:22.250
    01:00:56.041                             : en:01:00:56.041
    01:05:35.500                             : en:01:05:35.500
    01:10:13.125                             : en:01:10:13.125
    01:14:43.916                             : en:01:14:43.916
    01:22:09.583                             : en:01:22:09.583
    01:26:18.250                             : en:01:26:18.250
    01:31:18.166                             : en:01:31:18.166
    01:35:08.500                             : en:01:35:08.500

    Скриншоты:

    Каталог Новинок (Фильмы-трейлеры, Игры, Сериалы, Мультфильмы)

    © Оформление by Ворон
    pb.wtf



  • Скачать Спасти генерала Яна через торрент http://pic.kartinco.top/images/6/ordi9.jpg Скачать фильм Спасти генерала Яна через торрент бесплантно в хорошем качестве Описание:Во времена династии Сун семья Ян была одним из наиболее влиятельных семейств в китайской империи. Когда генерал Ян в результате ... 10 10 5
    Торрент: Зарегистрирован [2015-01-18 06:34] · скачан: 45 раз
    Статус: √ проверено
    Размер: 4.51 GB
    Как cкачать? Как скачать Спасти генерала Яна через торрент | qTorrent

    28-11-2019 20:33  

    Отключить всю рекламу на сайте

      Дорогой пользователь! Огромная просьба, поблагодарите релизера, оцените раздачу и оставьте свои комментарий, если Вы скачали Спасти генерала Яна через торрент бесплатно! Внесите свою лепту в развитие PiratBit!
      Комментировать посты могут только пользователи прошедшие не сложную регистрацию
      Показать сообщения:    

      Спасти генерала Яна через торрент
      Скачать бесплатно Спасти генерала Яна
      Спасти генерала Яна скачать торрент
      Спасти генерала Яна смотреть онлайн
      Cкачать фильм Спасти генерала Яна бесплатно
      Спасти генерала Яна скачать торрент в хорошем качестве
      Спасти генерала Яна смотреть онлайн бесплатно в хорошем качестве


      Вы не можете начинать темы
      Вы не можете отвечать на сообщения
      Вы не можете редактировать свои сообщения
      Вы не можете удалять свои сообщения
      Вы не можете голосовать в опросах
      Вы не можете прикреплять файлы к сообщениям
      Вы можете скачивать файлы