2 сезон

iTunes

1 сезон

1

iTunes

iTunes

iTunes

1 сезон

RePack

30

ИГРА 18+

pack

ВАЖНО

!!Акция!!

Alien_RageХит недели

RePack

MK11
pack

Забери бонус

RePack

jed

!!Акция!!

Alien_Rage

RePack

fifa19

RePack

Assassins Creed: Odyssey

RePack

NEED FOR SPEED™ PAYBACK

4 сезон

9 сезон

Бесстыжие 9 сезон

Все сериалы

все сериалы на PB.wtf

RePack

FAR CRY 5
  

Генрих V: Битва при Азенкуре / Henry V (Кеннет Брана ) [1989, боевик, драма, мелодрама, BDRip 720p, Профессиональный (двухголосый)+VO] pb.wtf

Генрих V: Битва при Азенкуре через торрент pb.wtf

Размер: 7.05 GB | Добавлен: 5 лет 9 мес. назад | Торрент скачан:184 раза
Скачать  

18-01-2015 06:41 Генрих V: Битва при Азенкуре Скачать торрент  


Генрих V: Битва при Азенкуре / Henry V

«The great adventure of a king who defied the odds to prove himself a man»

Год выпуска:1989
Страна:Великобритания
Жанр:боевик, драма, мелодрама, военный, биография, история
Продолжительность: 02:17:40
Перевод:Профессиональный двухголосый, профессиональный одноголосый
Субтитры: русские,
Режиссер:Кеннет Брана
В ролях:

Дерек Джекоби (Chorus), Кеннет Брана (King Henry V), Саймон Шепард (Duke Humphrey of Gloucester), Джеймс Ларкин (Duke John of Bedford), Брайан Блессид (Duke Thomas Beaufort of Exeter), Джеймс Симмонс (Duke Edward of York), Пол Грегори (Westmoreland), Чарльз Кей (Archbishop of Canterbury), Алек МакКоуэн (Bishop of Ely), Фабиан Картрайт (Earl Richard of Cambridge), Стивен Симмс (Lord Henry Scroop), Джей Вильерс (Sir Thomas Grey)
  • Описание:
    1415 год. Претендуя на титул короля Франции, молодой английский монарх Генрих V, вторгается на земли, которые он считает своими по праву. Несмотря на крайне тяжелую военную кампанию, английское войско продолжает одерживать победы. Но в местечке Азенкур, ослабленная армия англичан сталкивается с многократно превосходящими силами французов. Несмотря на это, Генрих, король - воин, решает дать бой, который войдет в историю...


    Качество: BDRip 720p
    Формат:MKV
    Видео кодек: AVC
    Аудио кодек:AC3
    Видео: AVC, 1280x694 (16:9), 6750 kbps, 23,976 fps, 0,317 bpp
    Аудио №1: русский / AC3 / 2.0 / 48 kHz / 192 kbps / 16 bit || Профессиональный двухголосый
    Аудио №2: русский / AC3 / 2.0 / 48 kHz / 192 kbps / 16 bit || Профессиональный одноголосый
    Аудио №3: английский / AC3 / 2.0 / 48 kHz / 192 kbps / 16 bit
    Навигация по главам: есть

    Код:

    General
    Unique ID                                : 249191251856037850127951388521796052649 (0xBB787D48326D2EF1BED7F2A1E3E5A6A9)
    Complete name                            : D:\Торенты\Henrih.V.1989.x264.BDRip.(720p)-MediaClub.mkv
    Format                                   : Matroska
    Format version                           : Version 4 / Version 2
    File size                                : 7.05 GiB
    Duration                                 : 2h 17mn
    Overall bit rate                         : 7 327 Kbps
    Movie name                               : = MediaClub = rip by Painter
    Encoded date                             : UTC 2015-01-16 11:45:56
    Writing application                      : mkvmerge v7.5.0 ('Glass Culture') 32bit built on Jan  4 2015 16:37:25
    Writing library                          : libebml v1.3.1 + libmatroska v1.4.2

    Video
    ID                                       : 1
    Format                                   : AVC
    Format/Info                              : Advanced Video Codec
    Format profile                           : High@L4.1
    Format settings, CABAC                   : Yes
    Format settings, ReFrames                : 9 frames
    Codec ID                                 : V_MPEG4/ISO/AVC
    Duration                                 : 2h 17mn
    Bit rate                                 : 6 750 Kbps
    Width                                    : 1 280 pixels
    Height                                   : 694 pixels
    Display aspect ratio                     : 16:9
    Frame rate                               : 23.976 fps
    Color space                              : YUV
    Chroma subsampling                       : 4:2:0
    Bit depth                                : 8 bits
    Scan type                                : Progressive
    Bits/(Pixel*Frame)                       : 0.317
    Stream size                              : 6.35 GiB (90%)
    Writing library                          : x264 core 142 r2409+42 04be48a tMod [8-bit@4:2:0 X86]
    Encoding settings                        : cabac=1 / ref=9 / deblock=1:-2:-2 / analyse=0x3:0x133 / me=umh / subme=11 / psy=1 / fade_compensate=0.00 / psy_rd=1.00:0.15 / mixed_ref=1 / me_range=32 / chroma_me=1 / trellis=2 / 8x8dct=1 / cqm=0 / deadzone=21,11 / fast_pskip=0 / chroma_qp_offset=-3 / threads=6 / lookahead_threads=1 / sliced_threads=0 / nr=0 / decimate=0 / interlaced=0 / bluray_compat=0 / constrained_intra=0 / fgo=0 / bframes=10 / b_pyramid=2 / b_adapt=2 / b_bias=0 / direct=3 / weightb=1 / open_gop=0 / weightp=2 / keyint=240 / keyint_min=23 / scenecut=40 / intra_refresh=0 / rc=2pass / mbtree=0 / bitrate=6750 / ratetol=1.0 / qcomp=0.60 / qpmin=0:0:0 / qpmax=69:69:69 / qpstep=4 / cplxblur=20.0 / qblur=0.5 / ip_ratio=1.40 / pb_ratio=1.30 / aq=2:1.00 / aq-sensitivity=10.00 / aq-factor=1.00:1.00:1.00 / aq2=0 / aq3=0
    Language                                 : English
    Default                                  : Yes
    Forced                                   : No

    Audio #1
    ID                                       : 2
    Format                                   : AC-3
    Format/Info                              : Audio Coding 3
    Format profile                           : Dolby Digital
    Mode extension                           : CM (complete main)
    Codec ID                                 : A_AC3
    Duration                                 : 2h 17mn
    Bit rate mode                            : Constant
    Bit rate                                 : 192 Kbps
    Channel(s)                               : 2 channels
    Channel positions                        : Front: L R
    Sampling rate                            : 48.0 KHz
    Bit depth                                : 16 bits
    Compression mode                         : Lossy
    Stream size                              : 189 MiB (3%)
    Title                                    : Многоголосый
    Language                                 : Russian
    Default                                  : Yes
    Forced                                   : No

    Audio #2
    ID                                       : 3
    Format                                   : AC-3
    Format/Info                              : Audio Coding 3
    Format profile                           : Dolby Digital
    Mode extension                           : CM (complete main)
    Codec ID                                 : A_AC3
    Duration                                 : 2h 17mn
    Bit rate mode                            : Constant
    Bit rate                                 : 192 Kbps
    Channel(s)                               : 2 channels
    Channel positions                        : Front: L R
    Sampling rate                            : 48.0 KHz
    Bit depth                                : 16 bits
    Compression mode                         : Lossy
    Stream size                              : 189 MiB (3%)
    Title                                    : Дементьев
    Language                                 : Russian
    Default                                  : No
    Forced                                   : No

    Audio #3
    ID                                       : 4
    Format                                   : AC-3
    Format/Info                              : Audio Coding 3
    Mode extension                           : CM (complete main)
    Codec ID                                 : A_AC3
    Duration                                 : 2h 17mn
    Bit rate mode                            : Constant
    Bit rate                                 : 192 Kbps
    Channel(s)                               : 2 channels
    Channel positions                        : Front: L R
    Sampling rate                            : 48.0 KHz
    Bit depth                                : 16 bits
    Compression mode                         : Lossy
    Stream size                              : 189 MiB (3%)
    Language                                 : English
    Default                                  : No
    Forced                                   : No

    Text
    ID                                       : 5
    Format                                   : UTF-8
    Codec ID                                 : S_TEXT/UTF8
    Codec ID/Info                            : UTF-8 Plain Text
    Language                                 : Russian
    Default                                  : No
    Forced                                   : No

    Menu
    00:00:00.000                             : :Chapter 01
    00:22:46.364                             : :Chapter 02
    00:36:25.850                             : :Chapter 03
    00:51:50.607                             : :Chapter 04
    01:09:44.013                             : :Chapter 05
    01:29:10.428                             : :Chapter 06
    01:36:36.248                             : :Chapter 07
    01:59:18.442                             : :Chapter 08


    Скриншоты:

    Каталог Новинок (Фильмы-трейлеры, Игры, Сериалы, Мультфильмы)

    © Оформление by Ворон
    pb.wtf



  • Скачать Генрих V: Битва при Азенкуре через торрент http://pic.kartinco.top/images/6/ordi9.jpg Скачать фильм Генрих V: Битва при Азенкуре через торрент бесплантно в хорошем качестве Описание:1415 год. Претендуя на титул короля Франции, молодой английский монарх Генрих V, вторгается на земли, которые он считает своими по ... 9.1 10 7
    Торрент: Зарегистрирован [2015-01-18 06:41] · скачан: 184 раз
    Статус: √ проверено
    Размер: 7.05 GB
    Как cкачать? Как скачать Генрих V: Битва при Азенкуре через торрент | qTorrent

    28-11-2019 20:33  

    Отключить всю рекламу на сайте

      Дорогой пользователь! Огромная просьба, поблагодарите релизера, оцените раздачу и оставьте свои комментарий, если Вы скачали Генрих V: Битва при Азенкуре через торрент бесплатно! Внесите свою лепту в развитие PiratBit!
      Комментировать посты могут только пользователи прошедшие не сложную регистрацию
      Показать сообщения:    

      Генрих V: Битва при Азенкуре через торрент
      Скачать бесплатно Генрих V: Битва при Азенкуре
      Генрих V: Битва при Азенкуре скачать торрент
      Генрих V: Битва при Азенкуре смотреть онлайн
      Cкачать фильм Генрих V: Битва при Азенкуре бесплатно
      Генрих V: Битва при Азенкуре скачать торрент в хорошем качестве
      Генрих V: Битва при Азенкуре смотреть онлайн бесплатно в хорошем качестве


      Вы не можете начинать темы
      Вы не можете отвечать на сообщения
      Вы не можете редактировать свои сообщения
      Вы не можете удалять свои сообщения
      Вы не можете голосовать в опросах
      Вы не можете прикреплять файлы к сообщениям
      Вы можете скачивать файлы