2 сезон

iTunes

1 сезон

1

iTunes

iTunes

iTunes

1 сезон

RePack

30

ИГРА 18+

pack

ВАЖНО

!!Акция!!

Alien_RageХит недели

RePack

MK11
pack

Забери бонус

RePack

jed

!!Акция!!

Alien_Rage

RePack

fifa19

RePack

Assassins Creed: Odyssey

RePack

NEED FOR SPEED™ PAYBACK

4 сезон

9 сезон

Бесстыжие 9 сезон

Все сериалы

все сериалы на PB.wtf

RePack

FAR CRY 5
  

187 / One Eight Seven (Кевин Рейнолдс) [1997, триллер, драма, BDRip 1080p] DVO, AVO pb.wtf

187 через торрент pb.wtf

Размер: 12.75 GB | Добавлен: 5 лет 9 мес. назад | Торрент скачан:85 раз
Скачать  

18-01-2015 08:57 187 Скачать торрент  

187 / One Eight Seven

Год выпуска: 1997
Страна: США
Жанр: триллер, драма
Продолжительность: 01:59:00
Перевод: профессиональный двухголосый, авторский
Субтитры: русские, английские

Режиссёр: Кевин Рейнолдс

В ролях: Сэмюэл Л. Джексон, Джон Хёрд, Келли Рауэн, Тони Плана, Карина Арройяве, Лобо Себастиан, Джек Келер, Джона Руни, Клифтон Коллинз мл., Энтвон Тэннер, Деметриус Наварро, Доминик Хоффман, Метод Мэн, Гай Торри, Ричард Рили, Лобо Себастьян, Джонни Богрис, Лиза Дель Мундо

Описание: Где обитают ублюдки? Учитель из Бруклина Тревор Гарфилд видит их каждый день в школе. Это готовые бандиты, от которых можно ждать чего угодно. Один из них из мести совершает попытку убить Гарфилда. После этого Гарфилд переезжает в Лос-Анджелес и... оказывается в таком же дерьме. Когда его терпению пришёл конец, он заставил подонков расплачиваться кровью за каждый совершённый проступок...



Качество: BDRip 1080p Сравнение с исходником
Формат: MKV
Видео кодек: H.264
Аудио кодек: AC3
Видео: 14.5 Mбит/с, 1920x1080, 23.976 кадра/с, 0.291 bpp
Аудио 1: русский, AC3, 192 kbps, 2 ch, 48 kHz [профессиональный двухголосый]
Аудио 2: русский, AC3, 192 kbps, 2 ch, 48 kHz [авторский, Андрей Гаврилов]
Аудио 3: английский, AC3, 192 kbps, 2 ch, 48 kHz [оригинал]

Имеются неименованные главы/чаптеры.
Общее
Уникальный идентификатор : 206019786353092925388427272481883329982 (0x9AFDF7B27EBB4C2B9544798658A495BE)
Полное имя : D:Video187.1997.BDRip.1080p.mkv
Формат : Matroska
Версия формата : Version 4 / Version 2
Размер файла : 12,8 Гбайт
Продолжительность : 1 ч. 59 м.
Общий поток : 15,3 Мбит/сек
Дата кодирования : UTC 2015-01-18 03:09:58
Программа кодирования : mkvmerge v7.5.0 ('Glass Culture') 64bit built on Jan 4 2015 16:48:44
Библиотека кодирования : libebml v1.3.1 + libmatroska v1.4.2
_STATISTICS_WRITING_APP : mkvmerge v7.5.0 ('Glass Culture') 64bit built on Jan 4 2015 16:48:44
_STATISTICS_WRITING_DATE_UTC : 2015-01-18 03:09:58
_STATISTICS_TAGS : BPS DURATION NUMBER_OF_FRAMES NUMBER_OF_BYTES
DURATION : 01:50:54.779000000
NUMBER_OF_FRAMES : 1273
NUMBER_OF_BYTES : 40206

Видео
Идентификатор : 1
Формат : AVC
Формат/Информация : Advanced Video Codec
Профиль формата : High@L4.1
Параметр CABAC формата : Да
Параметр ReFrames формата : 4 кадра
Идентификатор кодека : V_MPEG4/ISO/AVC
Продолжительность : 1 ч. 59 м.
Битрейт : 14,5 Мбит/сек
Ширина : 1920 пикселей
Высота : 1080 пикселей
Соотношение сторон : 16:9
Режим частоты кадров : Постоянный
Частота кадров : 23,976 кадра/сек
Цветовое пространство : YUV
Субдискретизация насыщенности : 4:2:0
Битовая глубина : 8 бит
Тип развёртки : Прогрессивная
Бит/(Пиксели*Кадры) : 0.291
Размер потока : 12,0 Гбайт (94%)
Заголовок : BDRip -- STarankov
Библиотека кодирования : x264 core 142 r2431 ac76440
Настройки программы : cabac=1 / ref=4 / deblock=1:-1:-1 / analyse=0x3:0x113 / me=umh / subme=10 / psy=1 / psy_rd=1.00:0.15 / mixed_ref=1 / me_range=32 / chroma_me=1 / trellis=2 / 8x8dct=1 / cqm=0 / deadzone=21,11 / fast_pskip=1 / chroma_qp_offset=-3 / threads=6 / lookahead_threads=1 / sliced_threads=0 / nr=0 / decimate=1 / interlaced=0 / bluray_compat=0 / constrained_intra=0 / bframes=8 / b_pyramid=2 / b_adapt=2 / b_bias=0 / direct=3 / weightb=1 / open_gop=0 / weightp=2 / keyint=230 / keyint_min=23 / scenecut=40 / intra_refresh=0 / rc_lookahead=40 / rc=crf / mbtree=0 / crf=18.0 / qcomp=0.60 / qpmin=0 / qpmax=69 / qpstep=4 / vbv_maxrate=40000 / vbv_bufsize=50000 / crf_max=0.0 / nal_hrd=none / filler=0 / ip_ratio=1.40 / pb_ratio=1.30 / aq=1:1.00
Язык : English
Default : Да
Forced : Нет
DURATION : 01:59:00.592000000
NUMBER_OF_FRAMES : 171203
NUMBER_OF_BYTES : 13174221684
_STATISTICS_WRITING_APP : mkvmerge v7.5.0 ('Glass Culture') 64bit built on Jan 4 2015 16:48:44
_STATISTICS_WRITING_DATE_UTC : 2015-01-18 03:09:58
_STATISTICS_TAGS : BPS DURATION NUMBER_OF_FRAMES NUMBER_OF_BYTES

Аудио #1
Идентификатор : 2
Формат : AC-3
Формат/Информация : Audio Coding 3
Расширение режима : CM (complete main)
Параметр Endianness формата : Big
Идентификатор кодека : A_AC3
Продолжительность : 1 ч. 59 м.
Вид битрейта : Постоянный
Битрейт : 192 Кбит/сек
Каналы : 2 канала
Расположение каналов : Front: L R
Частота : 48,0 КГц
Битовая глубина : 16 бит
Метод сжатия : С потерями
Размер потока : 163 Мбайт (1%)
Заголовок : DVO
Язык : Russian
Default : Да
Forced : Нет

Аудио #2
Идентификатор : 3
Формат : AC-3
Формат/Информация : Audio Coding 3
Расширение режима : CM (complete main)
Параметр Endianness формата : Big
Идентификатор кодека : A_AC3
Продолжительность : 1 ч. 59 м.
Вид битрейта : Постоянный
Битрейт : 192 Кбит/сек
Каналы : 2 канала
Расположение каналов : Front: L R
Частота : 48,0 КГц
Битовая глубина : 16 бит
Метод сжатия : С потерями
Размер потока : 163 Мбайт (1%)
Заголовок : AVO (Андрей Гаврилов)
Язык : Russian
Default : Нет
Forced : Нет

Аудио #3
Идентификатор : 4
Формат : AC-3
Формат/Информация : Audio Coding 3
Расширение режима : CM (complete main)
Параметр Endianness формата : Big
Идентификатор кодека : A_AC3
Продолжительность : 1 ч. 59 м.
Вид битрейта : Постоянный
Битрейт : 192 Кбит/сек
Каналы : 2 канала
Расположение каналов : Front: L R
Частота : 48,0 КГц
Битовая глубина : 16 бит
Метод сжатия : С потерями
Размер потока : 163 Мбайт (1%)
Заголовок : Original
Язык : English
Default : Нет
Forced : Нет

Текст #1
Идентификатор : 5
Формат : UTF-8
Идентификатор кодека : S_TEXT/UTF8
Идентификатор кодека/Информация : UTF-8 Plain Text
Заголовок : русский
Язык : Russian
Default : Нет
Forced : Нет

Текст #2
Идентификатор : 6
Формат : UTF-8
Идентификатор кодека : S_TEXT/UTF8
Идентификатор кодека/Информация : UTF-8 Plain Text
Заголовок : английский
Default : Нет
Forced : Нет

Меню
00:00:00.000 : :Chapter 01
00:09:25.439 : :Chapter 02
00:20:04.202 : :Chapter 03
00:30:00.256 : :Chapter 04
00:39:20.733 : :Chapter 05
00:49:31.009 : :Chapter 06
01:00:21.701 : :Chapter 07
01:09:03.722 : :Chapter 08
01:22:40.330 : :Chapter 09
01:32:30.795 : :Chapter 10
01:39:32.800 : :Chapter 11
01:54:39.497 : :Chapter 12
01:59:00.174 : :Chapter 13
pb.wtf



Скачать 187 через торрент http://i66.fastpic.ru/big/2015/0117/42/af2bc448a95f521f409850cc490d4d42.jpg Скачать фильм 187 через торрент бесплантно в хорошем качестве Описание: Где обитают ублюдки? Учитель из Бруклина Тревор Гарфилд видит их каждый день в школе. Это готовые бандиты, от которых можно ждать ... 8.2 10 5
Торрент: Зарегистрирован [2015-01-18 08:57] · скачан: 85 раз
Статус: √ проверено
Размер: 12.75 GB
Как cкачать? Как скачать 187 через торрент | qTorrent

% Раздел Тема Автор DL S | L
Ultra HD (UHD: 2K, 4K, 8K) — видео сверхвысокой чёткости [ 43.57 GB ] 187 / One Eight Seven [1997 UHD BDRemux 2160p] [SDR] DVO + AVO [Гаврилов] sheker187 Скачать
1 | 0
Фильмы [HD 720p, 1080p] (Хороший звук DUB, MVO) [ 7.94 GB ] 187 / One Eight Seven [1997 BDRip 1080p от еnvy / NNNB] DVO AVO еnvy Скачать
3 | 0
Фильмы [HD 720p, 1080p] (Хороший звук DUB, MVO) [ 6.23 GB ] 187 / One Eight Seven [1997 BDRip 720p] DVO AVO msltel Скачать
1 | 0

28-11-2019 20:33  

Отключить всю рекламу на сайте

    Дорогой пользователь! Огромная просьба, поблагодарите релизера, оцените раздачу и оставьте свои комментарий, если Вы скачали 187 через торрент бесплатно! Внесите свою лепту в развитие PiratBit!
    Комментировать посты могут только пользователи прошедшие не сложную регистрацию
    Показать сообщения:    

    187 через торрент
    Скачать бесплатно 187
    187 скачать торрент
    187 смотреть онлайн
    Cкачать фильм 187 бесплатно
    187 скачать торрент в хорошем качестве
    187 смотреть онлайн бесплатно в хорошем качестве


    Вы не можете начинать темы
    Вы не можете отвечать на сообщения
    Вы не можете редактировать свои сообщения
    Вы не можете удалять свои сообщения
    Вы не можете голосовать в опросах
    Вы не можете прикреплять файлы к сообщениям
    Вы можете скачивать файлы