Ссылка на приватное зеркало всего за 1$. Внимание количество ограничено!!!

iTunes

iTunes

iTunes

1

iTunes

iTunes

iTunes

iTunes

iTunes

30
pack

$ от Little Big

ВАЖНО

!!Акция!!

Alien_RageХит недели

RePack

Resident Evil 21

ИГРА 18+

pack

RePack

jed

!!Акция!!

Alien_Rage

RePack

fifa19

RePack

Assassins Creed: Odyssey

RePack

NEED FOR SPEED™ PAYBACK

4 сезон

9 сезон

Бесстыжие 9 сезон

Все сериалы

все сериалы на PB.wtf

RePack

FAR CRY 5
  

Мир, созданный без изъяна / The World Made Straight (Дэвид Буррис ) [2015, Драма, экранизация, WEB-DL 720p, Любительский (одноголосый) pb.wtf

Мир, созданный без изъяна через торрент pb.wtf

Размер: 3.88 GB | Добавлен: 5 лет 5 мес. назад | Торрент скачан:64 раза
Скачать  

18-01-2015 12:47 Мир, созданный без изъяна Скачать торрент  


Мир, созданный без изъяна / The World Made Straight


Год выпуска:2015
Страна:США
Жанр:Драма, экранизация
Продолжительность: 01:59:24
Перевод: Любительское (одноголосое) [Павел Морозов aka PashaUp] - по переводу [М.Васильева]
Субтитры: русские, русские (М. Васильев), английские,
Режиссер:Дэвид Буррис
В ролях:

Ноа Уайли (Leonard), Джереми Ирвин (Travis), Минка Келли (Dena), Эделейд Клеменс (Lori), Стив Эрл (Carlton), Хэйли Джоэл Осмент, Сандра Эллис Лэфферти (Mrs. Ponder), Маркус Хестер (Hubert), Диана Ленска (Leonard's Grandmother), Стивен Геведон (Grandfather), Тим Уэр (Store Manager), Колин Деннард (Wesley)
  • Описание:
    Семнадцатилетний Трэвис однажды летом забредает в лес, на частную территорию около его дома в Северной Каролине, и обнаруживает целую рощу марихуаны, после чего попадает в медвежий капкан. Проведя в ловушке несколько часов, он, наконец, освобожден местным фермером, хозяином делянки. Однако с этого момента он уже не может спокойно относиться к тем порокам, которыми пропитано это небольшое сельское сообщество в Аппалачах.
    Вскоре Тревис уезжает из родительского дома и поселяется у учителя Леонарда, который живет в трейлере на окраине города, балуется наркотиками и читает журналы об американской гражданской войне. Судьбы этих людей переплетаются, когда ужасное прошлое и болезненное настоящее городка приводит к ожесточенному сведению счетов, в котором с одной стороны оказывается замешан фермер с марихуаной, а с другой стороны эхом отдается кровавая резня времен гражданской войны, которая продолжает разделять местное сообщество.


    Качество: WEB-DL 720p
    Формат:MKV
    Видео кодек: AVC
    Аудио кодек:AC3
    Видео: AVC, 1280x528 (2.40:1), 3730 kbps, 23,976 fps, 0,230 bpp
    Аудио №1: русский / AC3 / 5.1 / 48 kHz / 448 kbps / 16 bit ||
    Аудио №2: английский / AC3 / 5.1 / 48 kHz / 384 kbps / 16 bit
    Навигация по главам: есть

    Код:

    General
    Unique ID                                : 208022615690521187208425560145764036367 (0x9C7FB2CEB89861B7BF9D9795FFF42F0F)
    Complete name                            : D:\Торенты\The.World.Made.Straight.2015.WEB-DL.720p.CINEMANIA.mkv
    Format                                   : Matroska
    Format version                           : Version 4 / Version 2
    File size                                : 3.88 GiB
    Duration                                 : 1h 59mn
    Overall bit rate                         : 4 655 Kbps
    Movie name                               : Release Group CINEMANIA
    Encoded date                             : UTC 2015-01-18 08:56:49
    Writing application                      : mkvmerge v7.5.0 ('Glass Culture') 64bit built on Jan  4 2015 16:48:44
    Writing library                          : libebml v1.3.1 + libmatroska v1.4.2

    Video
    ID                                       : 1
    Format                                   : AVC
    Format/Info                              : Advanced Video Codec
    Format profile                           : Main@L3.1
    Format settings, CABAC                   : No
    Format settings, ReFrames                : 2 frames
    Codec ID                                 : V_MPEG4/ISO/AVC
    Duration                                 : 1h 59mn
    Bit rate                                 : 3 731 Kbps
    Width                                    : 1 280 pixels
    Height                                   : 528 pixels
    Display aspect ratio                     : 2.40:1
    Frame rate                               : 23.976 fps
    Color space                              : YUV
    Chroma subsampling                       : 4:2:0
    Bit depth                                : 8 bits
    Scan type                                : Progressive
    Bits/(Pixel*Frame)                       : 0.230
    Stream size                              : 3.11 GiB (80%)
    Title                                    : Release Group CINEMANIA
    Language                                 : English
    Default                                  : Yes
    Forced                                   : No
    Color primaries                          : BT.709-5, BT.1361, IEC 61966-2-4, SMPTE RP177
    Transfer characteristics                 : BT.709-5, BT.1361
    Matrix coefficients                      : BT.709-5, BT.1361, IEC 61966-2-4 709, SMPTE RP177

    Audio #1
    ID                                       : 2
    Format                                   : AC-3
    Format/Info                              : Audio Coding 3
    Mode extension                           : CM (complete main)
    Codec ID                                 : A_AC3
    Duration                                 : 1h 59mn
    Bit rate mode                            : Constant
    Bit rate                                 : 448 Kbps
    Channel(s)                               : 6 channels
    Channel positions                        : Front: L C R, Side: L R, LFE
    Sampling rate                            : 48.0 KHz
    Bit depth                                : 16 bits
    Compression mode                         : Lossy
    Stream size                              : 383 MiB (10%)
    Title                                    : Павел Морозов
    Language                                 : Russian
    Default                                  : Yes
    Forced                                   : Yes

    Audio #2
    ID                                       : 3
    Format                                   : AC-3
    Format/Info                              : Audio Coding 3
    Mode extension                           : CM (complete main)
    Codec ID                                 : A_AC3
    Duration                                 : 1h 59mn
    Bit rate mode                            : Constant
    Bit rate                                 : 384 Kbps
    Channel(s)                               : 6 channels
    Channel positions                        : Front: L C R, Side: L R, LFE
    Sampling rate                            : 48.0 KHz
    Bit depth                                : 16 bits
    Compression mode                         : Lossy
    Stream size                              : 328 MiB (8%)
    Language                                 : English
    Default                                  : No
    Forced                                   : No

    Text #1
    ID                                       : 4
    Format                                   : UTF-8
    Codec ID                                 : S_TEXT/UTF8
    Codec ID/Info                            : UTF-8 Plain Text
    Language                                 : Russian
    Default                                  : Yes
    Forced                                   : Yes

    Text #2
    ID                                       : 5
    Format                                   : UTF-8
    Codec ID                                 : S_TEXT/UTF8
    Codec ID/Info                            : UTF-8 Plain Text
    Title                                    : М. Васильев
    Language                                 : Russian
    Default                                  : No
    Forced                                   : No

    Text #3
    ID                                       : 6
    Format                                   : UTF-8
    Codec ID                                 : S_TEXT/UTF8
    Codec ID/Info                            : UTF-8 Plain Text
    Language                                 : English
    Default                                  : No
    Forced                                   : No

    Menu
    00:00:00.000                             : en:1
    00:06:22.000                             : en:2
    00:12:58.000                             : en:3
    00:18:18.000                             : en:4
    00:25:55.000                             : en:5
    00:31:35.000                             : en:6
    00:40:01.000                             : en:7
    00:47:22.000                             : en:8
    00:55:43.000                             : en:9
    01:02:28.000                             : en:10
    01:11:13.000                             : en:11
    01:18:42.000                             : en:12
    01:26:37.000                             : en:13
    01:34:53.000                             : en:14
    01:38:28.000                             : en:15
    01:48:58.000                             : en:16


    Скриншоты:

    Каталог Новинок (Фильмы-трейлеры, Игры, Сериалы, Мультфильмы)

    © Оформление by Ворон
    pb.wtf



  • Скачать Мир, созданный без изъяна через торрент http://pic.kartinco.top/images/6/ordi9.jpg Скачать фильм Мир, созданный без изъяна через торрент бесплантно в хорошем качестве Описание:Семнадцатилетний Трэвис однажды летом забредает в лес, на частную территорию около его дома в Северной Каролине, и обнаруживает ... 9.3 10 6
    Торрент: Зарегистрирован [2015-01-18 12:47] · скачан: 64 раз
    Статус: T временная
    Размер: 3.88 GB
    Как cкачать? Как скачать Мир, созданный без изъяна через торрент | qTorrent

    % Раздел Тема Автор DL S | L
    T Фильмы [HD 720p, 1080p] (Звук Cam, VO, DVO) [ 8.29 GB ] Мир созданный без изъяна / The World Made Straight [2014 BDRip 1080p VOx2] Ворон Скачать
    1 | 0

    28-11-2019 20:33  

    Отключить всю рекламу на сайте

      Дорогой пользователь! Огромная просьба, поблагодарите релизера, оцените раздачу и оставьте свои комментарий, если Вы скачали Мир, созданный без изъяна через торрент бесплатно! Внесите свою лепту в развитие PiratBit!
      Комментировать посты могут только пользователи прошедшие не сложную регистрацию
      Показать сообщения:    

      Мир, созданный без изъяна через торрент
      Скачать бесплатно Мир, созданный без изъяна
      Мир, созданный без изъяна скачать торрент
      Мир, созданный без изъяна смотреть онлайн
      Cкачать фильм Мир, созданный без изъяна бесплатно
      Мир, созданный без изъяна скачать торрент в хорошем качестве
      Мир, созданный без изъяна смотреть онлайн бесплатно в хорошем качестве


      Вы не можете начинать темы
      Вы не можете отвечать на сообщения
      Вы не можете редактировать свои сообщения
      Вы не можете удалять свои сообщения
      Вы не можете голосовать в опросах
      Вы не можете прикреплять файлы к сообщениям
      Вы можете скачивать файлы