1 сезон

1 сезон

iTunes

1

КиноПоиск HD

Кинопоиск HD

iTunes

13

1 сезон

RePack

30

Новинка

ВАЖНО

ИГРА 18+

pack

RePack

MK11
pack

Легкие деньги

RePack

jed

RePack

fifa19

RePack

RDR2

RePack

NEED FOR SPEED™ PAYBACK

4 сезон

9 сезон

Бесстыжие 9 сезон

Все сериалы

все сериалы на PB.wtf

RePack

FAR CRY 5
  
Magnet ссылка

Изоляция / Isolation (Билли О`Брайэн) [2005 г., ужасы, фантастика, триллер, HDRip, Профессиональный многоголосый "Лицензия"] pb.wtf

Изоляция через торрент pb.wtf

Размер: 1.45 GB | Добавлен: 6 лет 2 мес. назад | Торрент скачан:213 раз
Скачать  

18-01-2015 18:10 Изоляция Скачать торрент  

Изоляция / Isolation
Год выпуска: 2005
Страна: Великобритания, Ирландия, США / Film Four, Lions Gate Films, Bórd Scannán na hÉireann
Жанр: ужасы, фантастика, триллер
Продолжительность: 01:34:28
Перевод: Профессиональный многоголосый (Лицензия)

Режиссер: Билли О`Брайэн

В ролях: Эсси Дэвис, Шон Харрис, Марчел Юреш, Криспин Леттс, Джон Линч, Рут Негга, Стэнли Таунсенд

Описание: Ирландия. Глубинка. Заброшенная ферма Дена Рейли — обрушающиеся здания, полный упадок. Ден еле сводит концы с концами. Он в крайнем состоянии и соглашается принять участие в генетическом эксперименте, разрешает провести тесты на своем рогатом скоте местной лаборатории биотехнологии…

Эксперимент дает сбой и пять человек, находящиеся на ферме, становятся невольными участниками и заложниками ситуации, неспособными избежать происходящего. 24 часа изоляции…

Качество: HDRip
Формат: AVI
Видео кодек: XviD
Аудио кодек: AC3
Видео: 720x304 (2.37:1), 23.976 fps, XviD build 50 ~1738 kbps avg, 0.33 bit/pixel
Аудио: 48 kHz, AC3 Dolby Digital, 3/2 (L,C,R,l,r) + LFE ch, ~448 kbps

скриншот   скриншот   скриншот   скриншот   скриншот  

Общее
Полное имя : F:\кино\Изоляция.2005.HDRip.avi
Формат : AVI
Формат/Информация : Audio Video Interleave
Размер файла : 1,45 Гбайт
Продолжительность : 1 ч. 34 м.
Общий поток : 2196 Кбит/сек
Программа кодирования : VirtualDubMod 1.5.10.3 | www.virtualdub-fr.org || (build 2550/release)
Библиотека кодирования : VirtualDubMod build 2550/release

Видео
Идентификатор : 0
Формат : MPEG-4 Visual
Профиль формата : Advanced Simple@L5
Параметр BVOP формата : 2
Параметр QPel формата : Нет
Параметр GMC формата : Без точки перехода
Параметр матрицы формата : Default (H.263)
Идентификатор кодека : XVID
Идентификатор кодека/Подсказка : XviD
Продолжительность : 1 ч. 34 м.
Битрейт : 1739 Кбит/сек
Ширина : 720 пикселей
Высота : 304 пикселя
Соотношение сторон : 2,35:1
Частота кадров : 23,976 кадра/сек
Цветовое пространство : YUV
Субдискретизация насыщенности : 4:2:0
Битовая глубина : 8 бит
Тип развёртки : Прогрессивная
Метод сжатия : С потерями
Бит/(Пиксели*Кадры) : 0.331
Размер потока : 1,15 Гбайт (79%)
Библиотека кодирования : XviD 1.2.1 (UTC 2008-12-04)

Аудио
Идентификатор : 1
Формат : AC-3
Формат/Информация : Audio Coding 3
Расширение режима : CM (complete main)
Параметр Endianness формата : Big
Идентификатор кодека : 2000
Продолжительность : 1 ч. 34 м.
Вид битрейта : Постоянный
Битрейт : 448 Кбит/сек
Каналы : 6 каналов
Расположение каналов : Front: L C R, Side: L R, LFE
Частота : 48,0 КГц
Битовая глубина : 16 бит
Метод сжатия : С потерями
Размер потока : 303 Мбайт (20%)
Выравнивание : Разделение по промежуткам
Продолжительность промежутка : 42 мс. (1,00 видеокадр)
Время предзагрузки промежутка : 500 мс.

pb.wtf



Скачать Изоляция через торрент https://pic.kartinco.top/images/8/189up.jpg Скачать фильм Изоляция через торрент бесплантно в хорошем качестве Описание: Ирландия. Глубинка. Заброшенная ферма Дена Рейли — обрушающиеся здания, полный упадок. Ден еле сводит концы с концами. Он в ... 9.8 10 10
Торрент: Зарегистрирован [2015-01-18 18:10] · скачан: 213 раз
Статус: √ проверено
Размер: 1.45 GB
Как cкачать? Как скачать Изоляция через торрент | UTorrent

28-11-2019 20:33  

Отключить всю рекламу на сайте

    Дорогой пользователь! Огромная просьба, поблагодарите релизера, оцените раздачу и оставьте свои комментарий, если Вы скачали Изоляция через торрент бесплатно! Внесите свою лепту в развитие PiratBit!
    Комментировать посты могут только пользователи прошедшие не сложную регистрацию
    Показать сообщения:    

    Изоляция через торрент
    Скачать бесплатно Изоляция
    Изоляция скачать торрент
    Изоляция смотреть онлайн
    Cкачать фильм Изоляция бесплатно
    Изоляция скачать торрент в хорошем качестве
    Изоляция смотреть онлайн бесплатно в хорошем качестве


    Вы не можете начинать темы
    Вы не можете отвечать на сообщения
    Вы не можете редактировать свои сообщения
    Вы не можете удалять свои сообщения
    Вы не можете голосовать в опросах
    Вы не можете прикреплять файлы к сообщениям
    Вы можете скачивать файлы