Ссылка на приватное зеркало нашего сайта всего за 1$. Внимание количество ограничено!!!

2 сезон

iTunes

1 сезон

1

2 сезон

2 сезон

iTunes

1 сезон

RePack

30

Ultimate

ВАЖНО

ИГРА 18+

pack

RePack

MK11
pack

Забери бонус

RePack

jed

!!Акция!!

Alien_Rage

RePack

fifa19

RePack

Assassins Creed: Odyssey

RePack

NEED FOR SPEED™ PAYBACK

4 сезон

9 сезон

Бесстыжие 9 сезон

Все сериалы

все сериалы на PB.wtf

RePack

FAR CRY 5
  

Спираль / Helix / Сезон: 2 / Серии 1-13 из 13 (Брэд Тернер / Brad Turner, Джеримайя С. Чечик / Jeremiah S. Chechik, Дуан Кларк / Duane Clark) [2015, США, Канада, фантастика, триллер, WEB-DLRip 1080p] MVO [LostFilm] pb.wtf

Спираль через торрент pb.wtf

Размер: 23.17 GB | Добавлен: 5 лет 7 мес. назад | Торрент скачан:35 раз
Скачать  

19-01-2015 02:28 Спираль Скачать торрент  

Спираль / Helix
«Правда распространится»


  • Год выпуска: 2015
  • Страна: США, Канада
  • Жанр: фантастика, триллер
  • Продолжительность: 00:41:49 (Серия)
  • Перевод: Профессиональный многоголосый закадровый) [LostFilm]

  • Режиссер: Брэд Тернер / Brad Turner, Джеримайя С. Чечик / Jeremiah S. Chechik, Дуан Кларк / Duane Clark
  • В ролях:

    Билл Кэмпбелл (Dr. Alan Farragut), Хироюки Санада (Dr. Hiroshi Hatake), Кира Загорски (Dr. Julia Walker), Марк Ганиме (Major Sergio Balleseros), Джордан Хэйес (Dr. Sarah Jordan), Мигвун Фэйрбразер (Daniel Aerov), Нил Напье (Dr. Peter Farragut), Лучана Карро (Anana), Чимвемве Миллер (Dr. Haven), Катрин Лемье (Dr. Doreen Boyle), Эмбер Гольдфарб (Jaye), Патрик Бейби (Dr. Philippe Duchamp)

  • Описание:
    Сериал расскажет о группе учёных из Центра по Борьбе с Заболеваниями, направленных на высокотехнологичную исследовательскую базу в Арктике для расследования возможной вспышки заболевания и вынужденных вести борьбу за спасение человечества.
  • Рейтинг:



  • Качество: WEB-DLRip 1080p
  • Формат: :MKV
  • Видео кодек: AVC
  • Аудио кодек: AC3
  • Видео: 1920x1080 (16:9), 5242 kbps, 23,976 fps, 0,105 bpp
  • Аудио №1: Русский 2.0 / 48 kHz / 384 kbps / 16 bit
  • Аудио №2: Английский 2.0 / 48 kHz / 384 kbps / 16 bit
  • Релиз от: GEKADOL

    Код:

    Внимание! Раздача ведётся путём добавления новых серий; при каждом добавлении создаётся новый торрент. Чтобы начать докачку новой серии, пользователям необходимо сделать следующее:
    (1) остановить скачивание,
    (2) удалить старый торрент у себя из клиента (старые серии удалять не надо),
    (3) скачать новый торрент и запустить его у себя в клиенте вместо старого, при этом указать клиенту путь в старую папку куда и должно происходить скачивание новых серий.
    Ваш клиент при этом должен произвести хеширование (проверку) старой папки (если не производит сам - помогите ему сделать это), и будет докачивать только те серии которых у вас ещё нет. Старые серии при этом не удаляются, а продолжают раздаваться!
    Eсли вы уже удалили старые серии, то предотвратить повторную закачку старых серий можно, отжав галочку в соответствующих местах при запуске нового торрента. По возможности, желательно не удалять старые серии как можно дольше чтобы релизёр не столько продолжал раздавать старые серии, а смог сконцентрироваться на новых.


    Код:

    General
    Unique ID                                : 222403941644939122168993681539100151044 (0xA75170EBB1249083A33005CAB2CD8D04)
    Complete name                            : I:\Helix.S02E01.1080p.rus.LostFilm.TV.mkv
    Format                                   : Matroska
    Format version                           : Version 2
    File size                                : 1.76 GiB
    Duration                                 : 41mn 49s
    Overall bit rate                         : 6 012 Kbps
    Encoded date                             : UTC 2015-01-18 18:10:17
    Writing application                      : mkvmerge v4.2.0 ('No Talking') сборка от Jul 28 2010 18:38:23
    Writing library                          : libebml v1.0.0 + libmatroska v1.0.0

    Video
    ID                                       : 1
    Format                                   : AVC
    Format/Info                              : Advanced Video Codec
    Format profile                           : High@L4.0
    Format settings, CABAC                   : Yes
    Format settings, ReFrames                : 2 frames
    Codec ID                                 : V_MPEG4/ISO/AVC
    Duration                                 : 41mn 49s
    Bit rate                                 : 5 242 Kbps
    Width                                    : 1 920 pixels
    Height                                   : 1 080 pixels
    Display aspect ratio                     : 16:9
    Frame rate                               : 23.976 fps
    Color space                              : YUV
    Chroma subsampling                       : 4:2:0
    Bit depth                                : 8 bits
    Scan type                                : Progressive
    Bits/(Pixel*Frame)                       : 0.105
    Stream size                              : 1.50 GiB (85%)
    Writing library                          : x264 core 112 r1834 a51816a
    Encoding settings                        : cabac=1 / ref=1 / deblock=1:0:0 / analyse=0x3:0x133 / me=umh / subme=7 / psy=1 / psy_rd=1.00:0.00 / mixed_ref=0 / me_range=16 / chroma_me=1 / trellis=1 / 8x8dct=1 / cqm=0 / deadzone=21,11 / fast_pskip=1 / chroma_qp_offset=-2 / threads=6 / sliced_threads=0 / nr=0 / decimate=1 / interlaced=0 / constrained_intra=0 / bframes=5 / b_pyramid=0 / b_adapt=1 / b_bias=0 / direct=3 / weightb=1 / open_gop=0 / weightp=2 / keyint=250 / keyint_min=25 / scenecut=40 / intra_refresh=0 / rc_lookahead=40 / rc=2pass / mbtree=1 / bitrate=5242 / ratetol=1.0 / qcomp=0.60 / qpmin=0 / qpmax=51 / qpstep=4 / cplxblur=20.0 / qblur=0.5 / ip_ratio=1.40 / aq=1:1.00
    Default                                  : Yes
    Forced                                   : No

    Audio #1
    ID                                       : 2
    Format                                   : AC-3
    Format/Info                              : Audio Coding 3
    Mode extension                           : CM (complete main)
    Codec ID                                 : A_AC3
    Duration                                 : 41mn 49s
    Bit rate mode                            : Constant
    Bit rate                                 : 384 Kbps
    Channel(s)                               : 2 channels
    Channel positions                        : Front: L R
    Sampling rate                            : 48.0 KHz
    Bit depth                                : 16 bits
    Compression mode                         : Lossy
    Stream size                              : 115 MiB (6%)
    Default                                  : Yes
    Forced                                   : No

    Audio #2
    ID                                       : 3
    Format                                   : AC-3
    Format/Info                              : Audio Coding 3
    Mode extension                           : CM (complete main)
    Codec ID                                 : A_AC3
    Duration                                 : 41mn 49s
    Bit rate mode                            : Constant
    Bit rate                                 : 384 Kbps
    Channel(s)                               : 2 channels
    Channel positions                        : Front: L R
    Sampling rate                            : 48.0 KHz
    Bit depth                                : 16 bits
    Compression mode                         : Lossy
    Stream size                              : 115 MiB (6%)
    Default                                  : No
    Forced                                   : No


    Скриншоты:
    скриншот   скриншот   скриншот   скриншот   скриншот  
    скриншот  

    Раздача ведётся путём добавления новых серий. Добавлена 13 серия (13.04.2015).Просьба перекачать торрент файл.

    pb.wtf



  • Скачать Спираль через торрент http://i64.fastpic.ru/big/2015/0119/ad/cb86cc8625e799d237c72dc570fa3ead.jpg Скачать фильм Спираль через торрент бесплантно в хорошем качестве Описание: Сериал расскажет о группе учёных из Центра по Борьбе с Заболеваниями, направленных на высокотехнологичную исследовательскую базу ... 9.9 10 14
    Info! Золотая раздача, скачанное не засчитывается.
    Торрент: Зарегистрирован [2015-04-13 02:03] · скачан: 35 раз
    Статус: √ проверено
    Размер: 23.17 GB
    Как cкачать? Как скачать Спираль через торрент | qTorrent

    % Раздел Тема Автор DL S | L
    Зарубежные сериалы [ 22.58 GB ] Спираль / Helix / Сезон: 2 / Серии 1-13 из 13 [2015 WEB-DL 1080p MVO] [BaibaKo] GEKADOL Скачать
    1 | 0
    Зарубежные сериалы [ 7.88 GB ] Спираль / Helix / Сезон: 2 / Серии 1-13 из 13 [2015 WEB-DLRip MVO] [BaibaKo] GEKADOL Скачать
    1 | 0
    Зарубежные сериалы [ 16.33 GB ] Спираль / Helix / Сезон: 2 / Серии 1-13 из 13 [2015 WEB-DLRip 720p MVO] [LostFilm] GEKADOL Скачать
    1 | 0
    Зарубежные сериалы [ 5.3 GB ] Спираль / Helix / Сезон: 2 / Серии 1-13 из 13 [2015 WEB-DLRip MVO] [LostFilm] Anonymous Скачать
    1 | 0
    Зарубежные сериалы [ 18.38 GB ] Спираль / Helix / Сезон: 2 / Серии 1-13 из 13 [2015 WEB-DL 720p MVO] [AlexFilm] GEKADOL Скачать
    1 | 0
    Зарубежные сериалы [ 6.36 GB ] Спираль / Helix / Сезон: 2 / Серии 1-13 из 13 [2015 WEB-DLRip MVO] [AlexFilm] GEKADOL Скачать
    1 | 0


    Последний раз редактировалось: GEKADOL (2015-04-13 02:03), всего редактировалось 17 раз(а)

    28-11-2019 20:33  

    Отключить всю рекламу на сайте

    19-01-2015 16:58 Спираль Скачать торрент  

    оо наконецто! спасибо ! очень ждал этот сериал!pb.wtf



    26-01-2015 04:12 Спираль Скачать торрент  

    Alexander198003 писал(а):

    оо наконецто! спасибо ! очень ждал этот сериал!

    pb.wtf



      Дорогой пользователь! Огромная просьба, поблагодарите релизера, оцените раздачу и оставьте свои комментарий, если Вы скачали Спираль через торрент бесплатно! Внесите свою лепту в развитие PiratBit!
      Комментировать посты могут только пользователи прошедшие не сложную регистрацию
      Показать сообщения:    

      Спираль через торрент
      Скачать бесплатно Спираль
      Спираль скачать торрент
      Спираль смотреть онлайн
      Cкачать фильм Спираль бесплатно
      Спираль скачать торрент в хорошем качестве
      Спираль смотреть онлайн бесплатно в хорошем качестве


      Вы не можете начинать темы
      Вы не можете отвечать на сообщения
      Вы не можете редактировать свои сообщения
      Вы не можете удалять свои сообщения
      Вы не можете голосовать в опросах
      Вы не можете прикреплять файлы к сообщениям
      Вы можете скачивать файлы