Ссылка на приватное зеркало нашего сайта всего за 1$. Внимание количество ограничено!!!

2 сезон

iTunes

1 сезон

1

2 сезон

2 сезон

iTunes

1 сезон

RePack

30

Ultimate

ВАЖНО

ИГРА 18+

pack

RePack

MK11
pack

Забери бонус

RePack

jed

!!Акция!!

Alien_Rage

RePack

fifa19

RePack

Assassins Creed: Odyssey

RePack

NEED FOR SPEED™ PAYBACK

4 сезон

9 сезон

Бесстыжие 9 сезон

Все сериалы

все сериалы на PB.wtf

RePack

FAR CRY 5
  

Мушкетеры / The Musketeers / Сезон: 1 / Серии 1-10 из 10 (Фэррен Блэкберн / Farren Blackburn, Ричард Кларк / Richard Clark, Энди Хэй / Andy Hay) [2014, Великобритания, драма,приключения, боевик BDRip 720p] DUB(РенТВ) + Original pb.wtf

Мушкетеры через торрент pb.wtf

Размер: 31.51 GB | Добавлен: 5 лет 9 мес. назад | Торрент скачан:27 раз
Скачать  

19-01-2015 07:24 Мушкетеры Скачать торрент  

Мушкетеры / The Musketeers
Год выпуска: 2014
Страна: Великобритания / BBC One, BBC America
Жанр: Драма, приключения
Продолжительность: 00:58:38
Перевод: Дубляж(РенТВ)

Режиссер: Тоби Хэйнс, Фэррен Блэкберн, Ричард Кларк



В ролях: Люк Паскуалино, Том Бёрк, Ховард Чарльз, Сантьяго Кабрера, Александра Доулинг, Питер Капальди, Райан Гейдж, Мэйми МакКой, Хьюго Спир, Шарлотта Хоуп, Джулиан Бастида, Эмили Бичем, Филип Броди, Кевин Кларк, Джей Джей Филд, Тамла Кари, Эбигейл Райс, Джеймс Кэллис, Шон Сернов, Фиона Глэскотт, Джим Хай, Энтон Лессер, Саймон Микок, Стюарт Мур, Анна Скеллерн, Эшли Уолтерс, Власта Сваткова

Описание: Мушкетеры собираются на улицах Парижа в семнадцатом веке, где закон и порядок являются больше идеей, чем реальностью. Личные телохранители короля Людовика XIII, Атос, Арамис и Портос решительно стоят за социальную справедливость, за честь, за доблесть, так же за любовь — и за острые ощущения. Как сообщается, сценарист Эдриан Ходжес должен был всего лишь передать антураж того времени, и не зацикливать свое повествоване на точной копировки сюжета романа. Разумеется, мушкетеры получились более задиристые, более отвязные. Они устраивают бучи на улицах Парижа не только потому, что нарушена чьи — то честь и достоинство (а так же и закон, но и для того, чтобы пощекотать свои нервишки, деть куда — нибудь выпирающее через уши г… бурное настроение…

Качество: BDRip 720p
Формат: MKV
Видео кодек: AVC
Аудио кодек: AC3
Видео: 1280x720 (16:9), 25.000 fps, 8 900 Kbps (0.386 bit/pixel)
Аудио#1: 48.0 KHz, 2 ch, 192 Kbps, CBR (Russian)
Аудио#2: 48.0 KHz, 2 ch, 640 Kbps, CBR (English)
Раздача обновлена. Добавлены 8-10 серии
Релиз от:
Внимание! Раздача ведётся путём добавления новых серий; при каждом добавлении создаётся новый торрент. Чтобы начать докачку новой серии, пользователям необходимо сделать следующее:
(1) остановить скачивание,
(2) удалить старый торрент у себя из клиента (старые серии удалять не надо),
(3) скачать новый торрент и запустить его у себя в клиенте вместо старого, при этом указать клиенту путь в старую папку куда и должно происходить скачивание новых серий.
Ваш клиент при этом должен произвести хеширование (проверку) старой папки (если не производит сам - помогите ему сделать это), и будет докачивать только те серии которых у вас ещё нет. Старые серии при этом не удаляются, а продолжают раздаваться!
Eсли вы уже удалили старые серии, то предотвратить повторную закачку старых серий можно, отжав галочку в соответствующих местах при запуске нового торрента. По возможности, желательно не удалять старые серии как можно дольше чтобы релизёр не столько продолжал раздавать старые серии, а смог сконцентрироваться на новых.
скриншот   скриншот   скриншот   скриншот   скриншот   скриншот   скриншот  

Общее
Уникальный идентификатор : 248279099628738112111259186105185619656 (0xBAC8D0B47D45C70D911DBA4AAEAA4EC8)
Полное имя : H:\Мушкетеры\The.Musketeers.S01.720p.BluRay.x264-MediaClub\The.Musketeers.S01E01.Friends.and.Enemies.720p.BluRay.x264-MediaClub.mkv
Формат : Matroska
Версия формата : Version 4 / Version 2
Размер файла : 3,63 Гбайт
Продолжительность : 52 м.
Общий поток : 9930 Кбит/сек
Название фильма : S01E01 - Friends and Enemies (Друзья и враги) @ MediaClub.TV
Дата кодирования : UTC 2015-01-13 04:57:08
Программа кодирования : mkvmerge v7.4.0 ('Circles') 32bit built on Dec 12 2014 12:10:09
Библиотека кодирования : libebml v1.3.0 + libmatroska v1.4.1
_STATISTICS_WRITING_APP : mkvmerge v7.4.0 ('Circles') 32bit built on Dec 12 2014 12:10:09
_STATISTICS_WRITING_DATE_UTC : 2015-01-13 04:57:08
_STATISTICS_TAGS : BPS DURATION NUMBER_OF_FRAMES NUMBER_OF_BYTES
DURATION : 00:52:16.032000000
NUMBER_OF_FRAMES : 98001
NUMBER_OF_BYTES : 75264768

Видео
Идентификатор : 1
Формат : AVC
Формат/Информация : Advanced Video Codec
Профиль формата : High@L4.1
Параметр CABAC формата : Да
Параметр ReFrames формата : 9 кадров
Идентификатор кодека : V_MPEG4/ISO/AVC
Продолжительность : 52 м.
Битрейт : 8900 Кбит/сек
Ширина : 1280 пикселей
Высота : 720 пикселей
Соотношение сторон : 16:9
Режим частоты кадров : Постоянный
Частота кадров : 25,000 кадров/сек
Цветовое пространство : YUV
Субдискретизация насыщенности : 4:2:0
Битовая глубина : 8 бит
Тип развёртки : Прогрессивная
Бит/(Пиксели*Кадры) : 0.386
Размер потока : 3,25 Гбайт (90%)
Библиотека кодирования : x264 core 130 r2273 b3065e6
Настройки программы : cabac=1 / ref=9 / deblock=1:-1:-1 / analyse=0x3:0x133 / me=umh / subme=10 / psy=1 / psy_rd=1.00:0.15 / mixed_ref=1 / me_range=24 / chroma_me=1 / trellis=2 / 8x8dct=1 / cqm=0 / deadzone=21,11 / fast_pskip=1 / chroma_qp_offset=-3 / threads=6 / lookahead_threads=1 / sliced_threads=0 / nr=0 / decimate=1 / interlaced=0 / bluray_compat=0 / constrained_intra=0 / bframes=8 / b_pyramid=2 / b_adapt=2 / b_bias=0 / direct=3 / weightb=1 / open_gop=0 / weightp=2 / keyint=250 / keyint_min=25 / scenecut=40 / intra_refresh=0 / rc_lookahead=60 / rc=crf / mbtree=1 / crf=15.0 / qcomp=0.60 / qpmin=0 / qpmax=69 / qpstep=4 / vbv_maxrate=62500 / vbv_bufsize=78125 / crf_max=0.0 / nal_hrd=none / ip_ratio=1.40 / aq=1:1.00
Язык : English
Default : Да
Forced : Нет
Основные цвета : BT.709
Характеристики трансфера : BT.709
Коэффициенты матрицы : BT.709
colour_range : Limited

Аудио #1
Идентификатор : 2
Формат : AC-3
Формат/Информация : Audio Coding 3
Расширение режима : CM (complete main)
Параметр Endianness формата : Big
Идентификатор кодека : A_AC3
Продолжительность : 52 м.
Вид битрейта : Постоянный
Битрейт : 192 Кбит/сек
Каналы : 2 канала
Расположение каналов : Front: L R
Частота : 48,0 КГц
Битовая глубина : 16 бит
Метод сжатия : С потерями
Размер потока : 71,8 Мбайт (2%)
Заголовок : Дубляж (РенТВ)
Язык : Russian
Default : Да
Forced : Нет

Аудио #2
Идентификатор : 3
Формат : AC-3
Формат/Информация : Audio Coding 3
Расширение режима : CM (complete main)
Параметр Endianness формата : Big
Идентификатор кодека : A_AC3
Продолжительность : 52 м.
Вид битрейта : Постоянный
Битрейт : 640 Кбит/сек
Каналы : 2 канала
Расположение каналов : Front: L R
Частота : 48,0 КГц
Битовая глубина : 16 бит
Метод сжатия : С потерями
Размер потока : 239 Мбайт (6%)
Заголовок : Английский
Язык : English
Default : Нет
Forced : Нет

Меню
00:00:00.000 : en:Chapter 1
00:10:09.160 : en:Chapter 2
00:20:03.600 : en:Chapter 3
00:30:36.640 : en:Chapter 4
00:39:55.680 : en:Chapter 5

pb.wtf



Скачать Мушкетеры через торрент http://pic.kartinco.top/images/8/ts943.jpg Скачать фильм Мушкетеры через торрент бесплантно в хорошем качестве Описание: Мушкетеры собираются на улицах Парижа в семнадцатом веке, где закон и порядок являются больше идеей, чем реальностью. Личные ... 10 10 2
Info! Золотая раздача, скачанное не засчитывается.
Торрент: Зарегистрирован [2015-01-31 15:09] · скачан: 27 раз
Статус: √ проверено
Размер: 31.51 GB
Как cкачать? Как скачать Мушкетеры через торрент | qTorrent

% Раздел Тема Автор DL S | L
Зарубежные сериалы [ 10.68 GB ] Мушкетеры / The Musketeers / Сезон: 2 / Серии 1-8 из 10 [2015 HDTVRip 720p] MVO + Original Assasinca Скачать
1 | 0
Зарубежные сериалы [ 8.75 GB ] Мушкетеры / The Musketeers / Сезон: 1 / Серии 1-10 из 10 [2014 HDRip ] DUB + Original Assasinca Скачать
1 | 0
Зарубежные сериалы [ 17.97 GB ] Мушкетеры / The Musketeers / Сезон: 1 / Серии: 1-10 из 10 [2014 WEB-DL 720p] MVO [LostFilm] + MVO [NewStudio] + Original Messa-fan Скачать
1 | 0


Последний раз редактировалось: Assasinca (2015-01-31 16:28), всего редактировалось 3 раз(а)

28-11-2019 20:33  

Отключить всю рекламу на сайте

26-01-2015 12:04 Мушкетеры Скачать торрент  

народ, отпишитесь как сериал?pb.wtf



26-01-2015 12:11 Мушкетеры Скачать торрент  

посмотри посмотри, хороший сериал, после любой просмотренной серии, хочется ещё сразу парочку посмотреть))pb.wtf



    Дорогой пользователь! Огромная просьба, поблагодарите релизера, оцените раздачу и оставьте свои комментарий, если Вы скачали Мушкетеры через торрент бесплатно! Внесите свою лепту в развитие PiratBit!
    Комментировать посты могут только пользователи прошедшие не сложную регистрацию
    Показать сообщения:    

    Мушкетеры через торрент
    Скачать бесплатно Мушкетеры
    Мушкетеры скачать торрент
    Мушкетеры смотреть онлайн
    Cкачать фильм Мушкетеры бесплатно
    Мушкетеры скачать торрент в хорошем качестве
    Мушкетеры смотреть онлайн бесплатно в хорошем качестве


    Вы не можете начинать темы
    Вы не можете отвечать на сообщения
    Вы не можете редактировать свои сообщения
    Вы не можете удалять свои сообщения
    Вы не можете голосовать в опросах
    Вы не можете прикреплять файлы к сообщениям
    Вы можете скачивать файлы