Ссылка на приватное зеркало нашего сайта всего за 1$. Внимание количество ограничено!!!

2 сезон

iTunes

1 сезон

1

2 сезон

2 сезон

iTunes

1 сезон

RePack

30

Ultimate

ВАЖНО

ИГРА 18+

pack

RePack

MK11
pack

Забери бонус

RePack

jed

!!Акция!!

Alien_Rage

RePack

fifa19

RePack

Assassins Creed: Odyssey

RePack

NEED FOR SPEED™ PAYBACK

4 сезон

9 сезон

Бесстыжие 9 сезон

Все сериалы

все сериалы на PB.wtf

RePack

FAR CRY 5
  

Мушкетеры / The Musketeers / Сезон: 1 / Серии 1-10 из 10 (Фэррен Блэкберн / Farren Blackburn, Ричард Кларк / Richard Clark, Энди Хэй / Andy Hay) [2014, Великобритания, драма,приключения, боевик HDRip ] DUB(РенТВ) + Original pb.wtf

Мушкетеры через торрент pb.wtf

Размер: 8.75 GB | Добавлен: 5 лет 10 мес. назад | Торрент скачан:130 раз
Скачать  

19-01-2015 07:59 Мушкетеры Скачать торрент  

Мушкетеры / The Musketeers
Год выпуска: 2014
Страна: Великобритания / BBC One, BBC America
Жанр: Драма, приключения
Продолжительность: 00:52:00
Перевод: Дубляж (РенТВ)

Режиссер: Тоби Хэйнс, Фэррен Блэкберн, Ричард Кларк



В ролях: Люк Паскуалино, Том Бёрк, Ховард Чарльз, Сантьяго Кабрера, Александра Доулинг, Питер Капальди, Райан Гейдж, Мэйми МакКой, Хьюго Спир, Шарлотта Хоуп, Джулиан Бастида, Эмили Бичем, Филип Броди, Кевин Кларк, Джей Джей Филд, Тамла Кари, Эбигейл Райс, Джеймс Кэллис, Шон Сернов, Фиона Глэскотт, Джим Хай, Энтон Лессер, Саймон Микок, Стюарт Мур, Анна Скеллерн, Эшли Уолтерс, Власта Сваткова

Описание: Мушкетеры собираются на улицах Парижа в семнадцатом веке, где закон и порядок являются больше идеей, чем реальностью. Личные телохранители короля Людовика XIII, Атос, Арамис и Портос решительно стоят за социальную справедливость, за честь, за доблесть, так же за любовь — и за острые ощущения. Как сообщается, сценарист Эдриан Ходжес должен был всего лишь передать антураж того времени, и не зацикливать свое повествоване на точной копировки сюжета романа. Разумеется, мушкетеры получились более задиристые, более отвязные. Они устраивают бучи на улицах Парижа не только потому, что нарушена чьи — то честь и достоинство (а так же и закон, но и для того, чтобы пощекотать свои нервишки, деть куда — нибудь выпирающее через уши г… бурное настроение…

Качество: HDRip
Формат: AVI
Видео кодек: XviD
Аудио кодек: AC3
Видео: 720x400 (16:9), 25.000 fps, 2 000 Kbps (0.278 bit/pixel)
Аудио#1: 48.0 KHz, 2 ch, 192 Kbps, CBR (Russian)
Аудио#2: 48.0 KHz, 2 ch, 192 Kbps, CBR (English)
Релиз от:
Раздача обновлена...Добавлены 8-10 серии
Внимание! Раздача ведётся путём добавления новых серий; при каждом добавлении создаётся новый торрент. Чтобы начать докачку новой серии, пользователям необходимо сделать следующее:
(1) остановить скачивание,
(2) удалить старый торрент у себя из клиента (старые серии удалять не надо),
(3) скачать новый торрент и запустить его у себя в клиенте вместо старого, при этом указать клиенту путь в старую папку куда и должно происходить скачивание новых серий.
Ваш клиент при этом должен произвести хеширование (проверку) старой папки (если не производит сам - помогите ему сделать это), и будет докачивать только те серии которых у вас ещё нет. Старые серии при этом не удаляются, а продолжают раздаваться!
Eсли вы уже удалили старые серии, то предотвратить повторную закачку старых серий можно, отжав галочку в соответствующих местах при запуске нового торрента. По возможности, желательно не удалять старые серии как можно дольше чтобы релизёр не столько продолжал раздавать старые серии, а смог сконцентрироваться на новых.
скриншот   скриншот   скриншот   скриншот   скриншот  

Общее
Полное имя : H:\Мушкетеры\The.Musketeers.S01.HDRip.Rus.Eng-MediaClub\The.Musketeers.S01E01.Friends.and.Enemies.HDRip.Rus.Eng-MediaClub.avi
Формат : AVI
Формат/Информация : Audio Video Interleave
Размер файла : 897 Мбайт
Продолжительность : 52 м.
Общий поток : 2398 Кбит/сек
Название фильма : S01E01 - Friends and Enemies (Друзья и враги)
Режиссёр : MediaClub.TV
Программа кодирования : VirtualDubMod 1.5.10.2 (build 2540/release)

Видео
Идентификатор : 0
Формат : MPEG-4 Visual
Профиль формата : Advanced Simple@L5
Параметр BVOP формата : 1
Параметр QPel формата : Нет
Параметр GMC формата : Без точки перехода
Параметр матрицы формата : Default (MPEG)
Идентификатор кодека : XVID
Идентификатор кодека/Подсказка : XviD
Продолжительность : 52 м.
Битрейт : 2000 Кбит/сек
Ширина : 720 пикселей
Высота : 400 пикселей
Соотношение сторон : 16:9
Частота кадров : 25,000 кадров/сек
Цветовое пространство : YUV
Субдискретизация насыщенности : 4:2:0
Битовая глубина : 8 бит
Тип развёртки : Прогрессивная
Метод сжатия : С потерями
Бит/(Пиксели*Кадры) : 0.278
Размер потока : 748 Мбайт (83%)
Библиотека кодирования : XviD 73

Аудио #1
Идентификатор : 1
Формат : AC-3
Формат/Информация : Audio Coding 3
Расширение режима : CM (complete main)
Параметр Endianness формата : Big
Идентификатор кодека : 2000
Продолжительность : 52 м.
Вид битрейта : Постоянный
Битрейт : 192 Кбит/сек
Каналы : 2 канала
Расположение каналов : Front: L R
Частота : 48,0 КГц
Битовая глубина : 16 бит
Метод сжатия : С потерями
Размер потока : 71,8 Мбайт (8%)
Выравнивание : Разделение по промежуткам
Продолжительность промежутка : 40 мс. (1,00 видеокадр)
Время предзагрузки промежутка : 500 мс.
Заголовок : Дубляж (РенТВ)

Аудио #2
Идентификатор : 2
Формат : AC-3
Формат/Информация : Audio Coding 3
Расширение режима : CM (complete main)
Параметр Endianness формата : Big
Идентификатор кодека : 2000
Продолжительность : 52 м.
Вид битрейта : Постоянный
Битрейт : 192 Кбит/сек
Каналы : 2 канала
Расположение каналов : Front: L R
Частота : 48,0 КГц
Битовая глубина : 16 бит
Метод сжатия : С потерями
Размер потока : 71,8 Мбайт (8%)
Выравнивание : Разделение по промежуткам
Продолжительность промежутка : 40 мс. (1,00 видеокадр)
Время предзагрузки промежутка : 500 мс.
Заголовок : Английский

pb.wtf



Скачать Мушкетеры через торрент http://pic.kartinco.top/images/8/ts943.jpg Скачать фильм Мушкетеры через торрент бесплантно в хорошем качестве Описание: Мушкетеры собираются на улицах Парижа в семнадцатом веке, где закон и порядок являются больше идеей, чем реальностью. Личные ... 9.8 10 6
Торрент: Зарегистрирован [2015-01-31 10:40] · скачан: 130 раз
Статус: √ проверено
Размер: 8.75 GB
Как cкачать? Как скачать Мушкетеры через торрент | qTorrent

% Раздел Тема Автор DL S | L
Зарубежные сериалы [ 10.68 GB ] Мушкетеры / The Musketeers / Сезон: 2 / Серии 1-8 из 10 [2015 HDTVRip 720p] MVO + Original Assasinca Скачать
1 | 0
Зарубежные сериалы [ 31.51 GB ] Мушкетеры / The Musketeers / Сезон: 1 / Серии 1-10 из 10 [2014 BDRip 720p] DUB + Original Assasinca Скачать
1 | 0
Зарубежные сериалы [ 17.97 GB ] Мушкетеры / The Musketeers / Сезон: 1 / Серии: 1-10 из 10 [2014 WEB-DL 720p] MVO [LostFilm] + MVO [NewStudio] + Original Messa-fan Скачать
1 | 0


Последний раз редактировалось: Assasinca (2015-01-31 16:32), всего редактировалось 7 раз(а)

28-11-2019 20:33  

Отключить всю рекламу на сайте

19-01-2015 10:17 Мушкетеры Скачать торрент  

какое то набивание отданого! серии из первого сезона, а в заголовке говорится что это 2й сезонpb.wtf



19-01-2015 10:37 Мушкетеры Скачать торрент  

vsergal писал(а):

какое то набивание отданого! серии из первого сезона, а в заголовке говорится что это 2й сезон

Вы правы-это первый сезон, полный дубляжpb.wtf



    Дорогой пользователь! Огромная просьба, поблагодарите релизера, оцените раздачу и оставьте свои комментарий, если Вы скачали Мушкетеры через торрент бесплатно! Внесите свою лепту в развитие PiratBit!
    Комментировать посты могут только пользователи прошедшие не сложную регистрацию
    Показать сообщения:    

    Мушкетеры через торрент
    Скачать бесплатно Мушкетеры
    Мушкетеры скачать торрент
    Мушкетеры смотреть онлайн
    Cкачать фильм Мушкетеры бесплатно
    Мушкетеры скачать торрент в хорошем качестве
    Мушкетеры смотреть онлайн бесплатно в хорошем качестве


    Вы не можете начинать темы
    Вы не можете отвечать на сообщения
    Вы не можете редактировать свои сообщения
    Вы не можете удалять свои сообщения
    Вы не можете голосовать в опросах
    Вы не можете прикреплять файлы к сообщениям
    Вы можете скачивать файлы