Ссылка на приватное зеркало нашего сайта всего за 1$. Внимание количество ограничено!!!

2 сезон

iTunes

1 сезон

1

2 сезон

2 сезон

iTunes

1 сезон

RePack

30

Ultimate

ВАЖНО

ИГРА 18+

pack

RePack

MK11
pack

Забери бонус

RePack

jed

!!Акция!!

Alien_Rage

RePack

fifa19

RePack

Assassins Creed: Odyssey

RePack

NEED FOR SPEED™ PAYBACK

4 сезон

9 сезон

Бесстыжие 9 сезон

Все сериалы

все сериалы на PB.wtf

RePack

FAR CRY 5
  

Темный Ангел / Dark Angel / Сезон: 2 / Эпизод 1-21(21) (Jeff Woolnough) [2001 г., Фантастика, DVDRip]MVO(Sci-Fi Россия) pb.wtf

Темный Ангел через торрент pb.wtf

Размер: 7.96 GB | Добавлен: 5 лет 10 мес. назад | Торрент скачан:65 раз
Скачать  

19-01-2015 09:59 Темный Ангел Скачать торрент  

Темный Ангел / Dark Angel
Год выпуска: 2001
Страна: США
Жанр: фантастика
Продолжительность: 00:45:00
Перевод: Профессиональный многоголосый (Sci-Fi Россия)

Режиссер: Jeff Woolnough



В ролях: Джессика Альба (Jessica Alba), Майкл Уэтерли (Michael Weatherly), Дженсен Эклс (Jensen Ackles), Дж.С. МакКензи (J.C. MacKenzie)

Описание: Электромагнитный импульс, устроенный террористами в 2009, превратил США в страну Третьего мира. Но одной генетически измененной девушке по имени Макс этот недостаток технологий помогает скрываться от правительственной группы. Известная как «Мантикора», группа био-инженеров изменяла гены детей в целях создания армии идеальных солдат.
Среди этих детей была и Макс. Однажды во время мятежа Макс и нескольким других детям удалось спастись. Теперь, пытаясь найти других беглецов, Макс сталкивается с подпольным кибер-журналистом Логаном Кейлом, и у нее появляется то, чего не было уже давно — союзник.

Качество: DVDRip
Формат: AVI
Видео кодек: XviD
Аудио кодек: MPEG Audio
Видео: 608x336 (16:9), 23.976 fps, 925 Kbps (0.189 bit/pixel)
Аудио#1: 48.0 KHz, 2 ch, 128 Kbps, CBR Русский
Аудио#2: 48.0 KHz, 2 ch, 128 Kbps, CBR Английский
скриншот   скриншот   скриншот   скриншот   скриншот   скриншот   скриншот   скриншот  

Общее
Полное имя : G:\кино\Темный ангел Dark Angel\Сезон 2\dark_angel.s02e01.dvdrip.rus.eng.novafilm_tv.avi
Формат : AVI
Формат/Информация : Audio Video Interleave
Размер файла : 372 Мбайт
Продолжительность : 43 м.
Общий поток : 1195 Кбит/сек
Программа кодирования : VirtualDubMod 1.5.10.2 (build 2542/release)
Библиотека кодирования : VirtualDubMod build 2542/release

Видео
Идентификатор : 0
Формат : MPEG-4 Visual
Параметр BVOP формата : Да
Параметр QPel формата : Нет
Параметр GMC формата : Без точки перехода
Параметр матрицы формата : Default (MPEG)
Идентификатор кодека : XVID
Идентификатор кодека/Подсказка : XviD
Продолжительность : 43 м.
Битрейт : 925 Кбит/сек
Ширина : 608 пикселей
Высота : 336 пикселей
Соотношение сторон : 16:9
Частота кадров : 23,976 кадра/сек
Цветовое пространство : YUV
Субдискретизация насыщенности : 4:2:0
Битовая глубина : 8 бит
Тип развёртки : Прогрессивная
Метод сжатия : С потерями
Бит/(Пиксели*Кадры) : 0.189
Размер потока : 288 Мбайт (77%)

Аудио #1
Идентификатор : 1
Формат : MPEG Audio
Версия формата : Version 1
Профиль формата : Layer 3
Режим : Joint stereo
Расширение режима : MS Stereo
Идентификатор кодека : 55
Идентификатор кодека/Подсказка : MP3
Продолжительность : 43 м.
Вид битрейта : Постоянный
Битрейт : 128 Кбит/сек
Каналы : 2 канала
Частота : 48,0 КГц
Метод сжатия : С потерями
Размер потока : 39,9 Мбайт (11%)
Выравнивание : Соединение по промежуткам
Продолжительность промежутка : 42 мс. (1,00 видеокадр)
Время предзагрузки промежутка : 504 мс.

Аудио #2
Идентификатор : 2
Формат : MPEG Audio
Версия формата : Version 1
Профиль формата : Layer 3
Режим : Joint stereo
Расширение режима : MS Stereo
Идентификатор кодека : 55
Идентификатор кодека/Подсказка : MP3
Продолжительность : 43 м.
Вид битрейта : Постоянный
Битрейт : 128 Кбит/сек
Каналы : 2 канала
Частота : 48,0 КГц
Метод сжатия : С потерями
Размер потока : 39,9 Мбайт (11%)
Выравнивание : Соединение по промежуткам
Продолжительность промежутка : 42 мс. (1,00 видеокадр)
Время предзагрузки промежутка : 504 мс.

pb.wtf



Скачать Темный Ангел через торрент http://pic.kartinco.top/images/8/4leq3.jpg Скачать фильм Темный Ангел через торрент бесплантно в хорошем качестве Описание: Электромагнитный импульс, устроенный террористами в 2009, превратил США в страну Третьего мира. Но одной генетически измененной ... 10 10 7
Info! Золотая раздача, скачанное не засчитывается.
Торрент: Зарегистрирован [2015-01-19 09:59] · скачан: 65 раз
Статус: √ проверено
Размер: 7.96 GB
Как cкачать? Как скачать Темный Ангел через торрент | qTorrent

28-11-2019 20:33  

Отключить всю рекламу на сайте

    Дорогой пользователь! Огромная просьба, поблагодарите релизера, оцените раздачу и оставьте свои комментарий, если Вы скачали Темный Ангел через торрент бесплатно! Внесите свою лепту в развитие PiratBit!
    Комментировать посты могут только пользователи прошедшие не сложную регистрацию
    Показать сообщения:    

    Темный Ангел через торрент
    Скачать бесплатно Темный Ангел
    Темный Ангел скачать торрент
    Темный Ангел смотреть онлайн
    Cкачать фильм Темный Ангел бесплатно
    Темный Ангел скачать торрент в хорошем качестве
    Темный Ангел смотреть онлайн бесплатно в хорошем качестве


    Вы не можете начинать темы
    Вы не можете отвечать на сообщения
    Вы не можете редактировать свои сообщения
    Вы не можете удалять свои сообщения
    Вы не можете голосовать в опросах
    Вы не можете прикреплять файлы к сообщениям
    Вы можете скачивать файлы