Ссылка на приватное зеркало всего за 1$. Внимание количество ограничено!!!

iTunes

iTunes

iTunes

1

iTunes

iTunes

iTunes

iTunes

iTunes

30
pack

$ от Little Big

ВАЖНО

!!Акция!!

Alien_RageХит недели

RePack

Resident Evil 21

ИГРА 18+

pack

RePack

jed

!!Акция!!

Alien_Rage

RePack

fifa19

RePack

Assassins Creed: Odyssey

RePack

NEED FOR SPEED™ PAYBACK

4 сезон

9 сезон

Бесстыжие 9 сезон

Все сериалы

все сериалы на PB.wtf

RePack

FAR CRY 5
  

Срам-ТВ / Swearnet: The Movie (Уоррен П. Сонода ) [2014, комедия, WEB-DL 720p, Любительский (одноголосый)[Михаил Яроцкий aka kyberpunk] pb.wtf

Срам-ТВ через торрент pb.wtf

Размер: 3.69 GB | Добавлен: 5 лет 5 мес. назад | Торрент скачан:81 раз
Скачать  

19-01-2015 10:45 Срам-ТВ Скачать торрент  


Срам-ТВ / Swearnet: The Movie
«Because people f#@king swear»

Год выпуска:2014
Страна: Канада
Жанр:комедия
Продолжительность:01:51:52
Перевод:Любительский (одноголосый)[Михаил Яроцкий aka kyberpunk]
Субтитры: русские, английские
Режиссер:Уоррен П. Сонода

  • В ролях:

    Робб Уэллс (Robb Wells), Джон Пол Тремблэ (John Paul Tremblay), Майк Смит (Mike Smith), Патрик Роач (Pat / Swearman), Том Грин (Tom Green), Скотт «Кэррот Топ» Томпсон (Carrot Top), Мишель Морган (Jamie), Сара Юргенс (Julie), Шеннон Леруа (Rachel), Дэна Вудс (Jogi), Ховард Джером (Trigger (Carl)), Leigh MacInnis (Leigh)
  • Описание:
    Устав от навязываемой им цензуры, Робб Уэллс, Майк Смит и Джон Пол Трембле решили запустить свой собственный канал в интернете, где они смогут творить все, что им заблагорассудится.

  • Мировая премьера:29 августа 2014

    Качество: WEB-DL 720p
    Формат:MKV
    Видео кодек: AVC
    Аудио кодек:AC3
    Видео: AVC, 1280x718 (16:9), 3859 kbps, 23,976 fps, 0,175 bpp
    Аудио №1: русский / AC3 / 5.1 / 48 kHz / 384 kbps / 16 bit ||
    Аудио №2: английский / AC3 / 5.1 / 48 kHz / 384 kbps / 16 bit
    Навигация по главам: есть


    Код:

    General
    Unique ID                                : 227322447338852884661758257447473132486 (0xAB04B5F95B45B47B8F22FD5566A233C6)
    Complete name                            : D:\Торенты\Sram.TV.WEB-DL.720p.mkv
    Format                                   : Matroska
    Format version                           : Version 4 / Version 2
    File size                                : 3.69 GiB
    Duration                                 : 1h 51mn
    Overall bit rate                         : 4 721 Kbps
    Movie name                               : Release Group CINEMANIA
    Encoded date                             : UTC 2015-01-18 15:49:06
    Writing application                      : mkvmerge v7.5.0 ('Glass Culture') 64bit built on Jan  4 2015 16:48:44
    Writing library                          : libebml v1.3.1 + libmatroska v1.4.2

    Video
    ID                                       : 1
    Format                                   : AVC
    Format/Info                              : Advanced Video Codec
    Format profile                           : High@L3.1
    Format settings, CABAC                   : No
    Format settings, ReFrames                : 2 frames
    Codec ID                                 : V_MPEG4/ISO/AVC
    Duration                                 : 1h 51mn
    Bit rate                                 : 3 859 Kbps
    Width                                    : 1 280 pixels
    Height                                   : 718 pixels
    Display aspect ratio                     : 16:9
    Frame rate                               : 23.976 fps
    Color space                              : YUV
    Chroma subsampling                       : 4:2:0
    Bit depth                                : 8 bits
    Scan type                                : Progressive
    Bits/(Pixel*Frame)                       : 0.175
    Stream size                              : 3.02 GiB (82%)
    Title                                    : Release Group CINEMANIA
    Language                                 : English
    Default                                  : Yes
    Forced                                   : No
    Color primaries                          : BT.709-5, BT.1361, IEC 61966-2-4, SMPTE RP177
    Transfer characteristics                 : BT.709-5, BT.1361
    Matrix coefficients                      : BT.709-5, BT.1361, IEC 61966-2-4 709, SMPTE RP177

    Audio #1
    ID                                       : 2
    Format                                   : AC-3
    Format/Info                              : Audio Coding 3
    Mode extension                           : CM (complete main)
    Codec ID                                 : A_AC3
    Duration                                 : 1h 51mn
    Bit rate mode                            : Constant
    Bit rate                                 : 384 Kbps
    Channel(s)                               : 6 channels
    Channel positions                        : Front: L C R, Side: L R, LFE
    Sampling rate                            : 48.0 KHz
    Bit depth                                : 16 bits
    Compression mode                         : Lossy
    Stream size                              : 307 MiB (8%)
    Title                                    : kyberpunk
    Language                                 : Russian
    Default                                  : Yes
    Forced                                   : Yes

    Audio #2
    ID                                       : 3
    Format                                   : AC-3
    Format/Info                              : Audio Coding 3
    Mode extension                           : CM (complete main)
    Codec ID                                 : A_AC3
    Duration                                 : 1h 51mn
    Bit rate mode                            : Constant
    Bit rate                                 : 384 Kbps
    Channel(s)                               : 6 channels
    Channel positions                        : Front: L C R, Side: L R, LFE
    Sampling rate                            : 48.0 KHz
    Bit depth                                : 16 bits
    Compression mode                         : Lossy
    Stream size                              : 307 MiB (8%)
    Language                                 : English
    Default                                  : No
    Forced                                   : No

    Text #1
    ID                                       : 4
    Format                                   : UTF-8
    Codec ID                                 : S_TEXT/UTF8
    Codec ID/Info                            : UTF-8 Plain Text
    Language                                 : Russian
    Default                                  : Yes
    Forced                                   : Yes

    Text #2
    ID                                       : 5
    Format                                   : UTF-8
    Codec ID                                 : S_TEXT/UTF8
    Codec ID/Info                            : UTF-8 Plain Text
    Language                                 : English
    Default                                  : No
    Forced                                   : No

    Menu
    00:00:00.000                             : en:Chapter 1
    00:08:31.000                             : en:Chapter 2
    00:18:11.000                             : en:Chapter 3
    00:29:38.000                             : en:Chapter 4
    00:40:29.000                             : en:Chapter 5
    00:52:35.000                             : en:Chapter 6
    01:01:09.000                             : en:Chapter 7
    01:08:58.000                             : en:Chapter 8
    01:18:30.000                             : en:Chapter 9
    01:30:42.000                             : en:Chapter 10
    01:42:26.000                             : en:Chapter 11

    Скриншоты:

    Каталог Новинок (Фильмы-трейлеры, Игры, Сериалы, Мультфильмы)

    © Оформление by Ворон
    pb.wtf



  • Скачать Срам-ТВ через торрент http://pic.kartinco.top/images/6/ordi9.jpg Скачать фильм Срам-ТВ через торрент бесплантно в хорошем качестве Описание:Устав от навязываемой им цензуры, Робб Уэллс, Майк Смит и Джон Пол Трембле решили запустить свой собственный канал в интернете, ... 10 10 6
    Торрент: Зарегистрирован [2015-01-19 10:45] · скачан: 81 раз
    Статус: T временная
    Размер: 3.69 GB
    Как cкачать? Как скачать Срам-ТВ через торрент | qTorrent

    % Раздел Тема Автор DL S | L
    T Фильмы 2014 (Звук TS, Cam, VO, DVO) [ 1.48 GB ] Срам-ТВ / Swearnet: The Movie [2014 WEB-DLRip Любительский [kyberpunk] GEKADOL Скачать
    1 | 0

    28-11-2019 20:33  

    Отключить всю рекламу на сайте

    19-01-2015 13:17 Срам-ТВ Скачать торрент  

    Кто нибудь смотрел фильм есть сомнения что и качать то не стоитpb.wtf



    19-01-2015 13:59 Срам-ТВ Скачать торрент  

    есть сомнение - не кончай...ой не качай...pb.wtf



      Дорогой пользователь! Огромная просьба, поблагодарите релизера, оцените раздачу и оставьте свои комментарий, если Вы скачали Срам-ТВ через торрент бесплатно! Внесите свою лепту в развитие PiratBit!
      Комментировать посты могут только пользователи прошедшие не сложную регистрацию
      Показать сообщения:    

      Срам-ТВ через торрент
      Скачать бесплатно Срам-ТВ
      Срам-ТВ скачать торрент
      Срам-ТВ смотреть онлайн
      Cкачать фильм Срам-ТВ бесплатно
      Срам-ТВ скачать торрент в хорошем качестве
      Срам-ТВ смотреть онлайн бесплатно в хорошем качестве


      Вы не можете начинать темы
      Вы не можете отвечать на сообщения
      Вы не можете редактировать свои сообщения
      Вы не можете удалять свои сообщения
      Вы не можете голосовать в опросах
      Вы не можете прикреплять файлы к сообщениям
      Вы можете скачивать файлы