Ссылка на приватное зеркало нашего сайта всего за 1$. Внимание количество ограничено!!!

2 сезон

iTunes

1 сезон

1

iTunes

iTunes

iTunes

1 сезон

RePack

30

ИГРА 18+

pack

ВАЖНО

!!Акция!!

Alien_RageХит недели

RePack

MK11
pack

Забери бонус

RePack

jed

!!Акция!!

Alien_Rage

RePack

fifa19

RePack

Assassins Creed: Odyssey

RePack

NEED FOR SPEED™ PAYBACK

4 сезон

9 сезон

Бесстыжие 9 сезон

Все сериалы

все сериалы на PB.wtf

RePack

FAR CRY 5
  

Косатка / Сезон: 1 / Серии 1-20 из 20 (Илья Максимов) [2015, Россия, детектив, криминал, SATRip) pb.wtf

Косатка через торрент pb.wtf

Размер: 11.73 GB | Добавлен: 5 лет 8 мес. назад | Торрент скачан:640 раз
Скачать  

19-01-2015 12:40 Косатка Скачать торрент  

Косатка


  • Год выпуска: 2015
  • Страна: Россия
  • Жанр: детектив, криминал
  • Продолжительность: 00:45:21 (Серия)
  • Перевод: Не требуется

  • Режиссер: Илья Максимов
  • В ролях:

    Ольга Ломоносова (Ольга Косаткина), Владимир Епифанцев (Илья Самойлов), Сергей Астахов, Сергей Марин (Кирилл Черепанов), Варвара Боровская, Александр Воробьев, Иван Гарьковец, Иван Гришанов, Лилия Дмитрик, Сергей Дорофеев, Виктория Дунаева, Александр Иванов (Гоша)

  • Описание:
    В отделе криминальной полиции города Костромы появляется новый сотрудник - майор Ольга Косаткина. Все отделение взбудоражено с приходом Косаткиной. Но не только потому, что Косаткина красивая и умная женщина. В первую очередь все пытаются узнать, почему Косаткина променяла весьма успешную карьеру в Санкт-Петербурге на трудную и скучную работу в провинции. Сама Косаткина не спешит откровенничать, а все расспросы и догадки решительно пресекает. Несмотря на подозрительность, а иногда и просто враждебное отношение со стороны некоторых коллег, Косаткина проявляет себя в качестве крепкого профессионала, а её чувство справедливости и честность позволяют завоевать авторитет как у коллег, так и у жителей Костромы. Но, чем больше преступлений раскрывает команда Косатки, тем туже сплетается клубок непростых отношений между тремя операми и Ольгой. Матерые сыщики влюбляются в нее как мальчишки, и между ними начинается настоящее соперничество за сердце неприступной Косатки...
  • Рейтинг:



  • Качество: SATRip
  • Формат: :AVI
  • Видео кодек: XviD
  • Аудио кодек: AC3
  • Видео: 720x400 (16:9), 1799 kbps, 25 fps, 0,250 bpp
  • Аудио: 2.0 / 48 kHz / 192 kbps / 16 bit
  • Релиз от: GEKADOL

    Код:

    Внимание! Раздача ведётся путём добавления новых серий; при каждом добавлении создаётся новый торрент. Чтобы начать докачку новой серии, пользователям необходимо сделать следующее:
    (1) остановить скачивание,
    (2) удалить старый торрент у себя из клиента (старые серии удалять не надо),
    (3) скачать новый торрент и запустить его у себя в клиенте вместо старого, при этом указать клиенту путь в старую папку куда и должно происходить скачивание новых серий.
    Ваш клиент при этом должен произвести хеширование (проверку) старой папки (если не производит сам - помогите ему сделать это), и будет докачивать только те серии которых у вас ещё нет. Старые серии при этом не удаляются, а продолжают раздаваться!
    Eсли вы уже удалили старые серии, то предотвратить повторную закачку старых серий можно, отжав галочку в соответствующих местах при запуске нового торрента. По возможности, желательно не удалять старые серии как можно дольше чтобы релизёр не столько продолжал раздавать старые серии, а смог сконцентрироваться на новых.


    Код:

    General
    Complete name                            : I:\Kosatka.01.SATRip.avi
    Format                                   : AVI
    Format/Info                              : Audio Video Interleave
    File size                                : 649 MiB
    Duration                                 : 45mn 21s
    Overall bit rate                         : 2 002 Kbps
    Writing application                      : VirtualDubMod 1.5.10.3 | www.virtualdub-fr.org || (build 2550/release)
    Writing library                          : VirtualDubMod build 2550/release

    Video
    ID                                       : 0
    Format                                   : MPEG-4 Visual
    Format profile                           : Advanced Simple@L5
    Format settings, BVOP                    : 2
    Format settings, QPel                    : No
    Format settings, GMC                     : No warppoints
    Format settings, Matrix                  : Default (H.263)
    Codec ID                                 : XVID
    Codec ID/Hint                            : XviD
    Duration                                 : 45mn 21s
    Bit rate                                 : 1 800 Kbps
    Width                                    : 720 pixels
    Height                                   : 400 pixels
    Display aspect ratio                     : 16:9
    Frame rate                               : 25.000 fps
    Color space                              : YUV
    Chroma subsampling                       : 4:2:0
    Bit depth                                : 8 bits
    Scan type                                : Progressive
    Compression mode                         : Lossy
    Bits/(Pixel*Frame)                       : 0.250
    Stream size                              : 584 MiB (90%)
    Writing library                          : XviD 1.2.1 (UTC 2008-12-04)

    Audio
    ID                                       : 1
    Format                                   : AC-3
    Format/Info                              : Audio Coding 3
    Mode extension                           : CM (complete main)
    Codec ID                                 : 2000
    Duration                                 : 45mn 21s
    Bit rate mode                            : Constant
    Bit rate                                 : 192 Kbps
    Channel(s)                               : 2 channels
    Channel positions                        : Front: L R
    Sampling rate                            : 48.0 KHz
    Bit depth                                : 16 bits
    Compression mode                         : Lossy
    Stream size                              : 62.3 MiB (10%)
    Alignment                                : Split accross interleaves
    Interleave, duration                     : 40 ms (1.00 video frame)
    Interleave, preload duration             : 500 ms


    Скриншоты:
    скриншот   скриншот   скриншот   скриншот   скриншот  
    скриншот  

    Раздача ведётся путём добавления новых серий. Добавлена 20 серия (29.01.2015).Просьба перекачать торрент файл.

    pb.wtf



  • Скачать Косатка через торрент http://i64.fastpic.ru/big/2015/0119/97/c42b393992af69fbcfb55d446328cc97.jpg Скачать фильм Косатка через торрент бесплантно в хорошем качестве Описание: В отделе криминальной полиции города Костромы появляется новый сотрудник - майор Ольга Косаткина. Все отделение взбудоражено с ... 9.2 10 46
    Info! Золотая раздача, скачанное не засчитывается.
    Торрент: Зарегистрирован [2015-01-29 15:31] · скачан: 640 раз
    Статус: √ проверено
    Размер: 11.73 GB
    Как cкачать? Как скачать Косатка через торрент | qTorrent



    Последний раз редактировалось: GEKADOL (2015-01-29 15:30), всего редактировалось 9 раз(а)

    28-11-2019 20:33  

    Отключить всю рекламу на сайте

    19-01-2015 13:47 Косатка Скачать торрент  

    А как получать бы сообщения о новых сериях, как на других трекерах?pb.wtf



    20-01-2015 14:06 Косатка Скачать торрент  

    :zay: :zay: :zay:pb.wtf



    14-02-2015 10:09 Косатка Скачать торрент  

    тема сисек в фильме раскрыл режиссер или лол?pb.wtf



    24-08-2015 16:11 Косатка Скачать торрент  

    Так получилось,что смотрю после Полицейский участок,Своя-чужая,такое чувство,что все зациклились на одном сюжетеpb.wtf



      Дорогой пользователь! Огромная просьба, поблагодарите релизера, оцените раздачу и оставьте свои комментарий, если Вы скачали Косатка через торрент бесплатно! Внесите свою лепту в развитие PiratBit!
      Комментировать посты могут только пользователи прошедшие не сложную регистрацию
      Показать сообщения:    

      Косатка через торрент
      Скачать бесплатно Косатка
      Косатка скачать торрент
      Косатка смотреть онлайн
      Cкачать фильм Косатка бесплатно
      Косатка скачать торрент в хорошем качестве
      Косатка смотреть онлайн бесплатно в хорошем качестве


      Вы не можете начинать темы
      Вы не можете отвечать на сообщения
      Вы не можете редактировать свои сообщения
      Вы не можете удалять свои сообщения
      Вы не можете голосовать в опросах
      Вы не можете прикреплять файлы к сообщениям
      Вы можете скачивать файлы