Ссылка на приватное зеркало нашего сайта всего за 1$. Внимание количество ограничено!!!

2 сезон

iTunes

1 сезон

1

iTunes

iTunes

iTunes

1 сезон

RePack

30

ИГРА 18+

pack

ВАЖНО

!!Акция!!

Alien_RageХит недели

RePack

MK11
pack

Забери бонус

RePack

jed

!!Акция!!

Alien_Rage

RePack

fifa19

RePack

Assassins Creed: Odyssey

RePack

NEED FOR SPEED™ PAYBACK

4 сезон

9 сезон

Бесстыжие 9 сезон

Все сериалы

все сериалы на PB.wtf

RePack

FAR CRY 5
  

Лифт: Три минуты могут изменить вашу жизнь / The Elevator: Three Minutes Can Change Your Life (Массимо Кольиторе ) [2013, триллер, драма, HDRip, Любительский (двухголосый) [den904, DeadSno] pb.wtf

Лифт: Три минуты могут изменить вашу жизнь через торрент pb.wtf

Размер: 1.4 GB | Добавлен: 5 лет 9 мес. назад | Торрент скачан:108 раз
Скачать  

19-01-2015 18:45 Лифт: Три минуты могут изменить вашу жизнь Скачать торрент  


Лифт: Три минуты могут изменить вашу жизнь / The Elevator: Three Minutes Can Change Your Life
«Two stories, two hours, one culprit, one victim, no winner»

Год выпуска:2013
Страна: Италия
Жанр:триллер, драма
Продолжительность:01:32:12
Перевод:Любительский (двухголосый) [den904, DeadSno]
Режиссер:Массимо Кольиторе

  • В ролях:

    Кэролайн Гудолл (Katherine), Берт Янг (George), Джеймс Паркс (Jack), Сара Лаззаро (Jane), Кэти МакГоверн (Emily), Никколо Сенни (Irving), Джанфранко Террин (Deliveryman), Катя Греко (Sarah), Paolo Borzì (Dr. Erguld), Daniel Mba (Robert)
  • Описание:
    Известный телеведущий оказывается запертым в лифте с женщиной по имени Катрин, которая считает, что его шоу провоцирует преступления. Недавно она перенесла трагическую гибель сына и считает шоумена виновным в этом. Она начинает свое собственное жестокое шоу в реальном режиме. Здесь трудно понять, кто преступник, а кто жертва. Столкновение двух характеров, двух воззрений, и ответ на вопрос, кто прав, кто виноват, предстоит искать зрителю...


    Качество: HDRip
    Формат:AVI
    Видео кодек: XviD
    Аудио кодек:AC3
    Видео: XviD, 720x304 (2.35:1), 1716kbps, 23,976 fps, 0,311 bpp
    Аудио: AC3 / 5.1 / 48 kHz / 448 kbps / 16 bit


    Код:

    General
    Complete name                            : D:\Торенты\The.Elevator.2013.HDRip.CINEMANIA.avi
    Format                                   : AVI
    Format/Info                              : Audio Video Interleave
    File size                                : 1.40 GiB
    Duration                                 : 1h 32mn
    Overall bit rate                         : 2 174 Kbps
    Writing application                      : VirtualDubMod 1.5.10.2 (build 2542/release)
    Writing library                          : VirtualDubMod build 2542/release

    Video
    ID                                       : 0
    Format                                   : MPEG-4 Visual
    Format profile                           : Advanced Simple@L5
    Format settings, BVOP                    : 2
    Format settings, QPel                    : No
    Format settings, GMC                     : No warppoints
    Format settings, Matrix                  : Default (H.263)
    Muxing mode                              : Packed bitstream
    Codec ID                                 : XVID
    Codec ID/Hint                            : XviD
    Duration                                 : 1h 32mn
    Bit rate                                 : 1716 Kbps
    Width                                    : 720 pixels
    Height                                   : 304 pixels
    Display aspect ratio                     : 2.35:1
    Frame rate                               : 23.976 fps
    Color space                              : YUV
    Chroma subsampling                       : 4:2:0
    Bit depth                                : 8 bits
    Scan type                                : Progressive
    Compression mode                         : Lossy
    Bits/(Pixel*Frame)                       : 0.311
    Stream size                              : 1.05 GiB (75%)
    Writing library                          : XviD 64

    Audio
    ID                                       : 1
    Format                                   : AC-3
    Format/Info                              : Audio Coding 3
    Mode extension                           : CM (complete main)
    Codec ID                                 : 2000
    Duration                                 : 1h 32mn
    Bit rate mode                            : Constant
    Bit rate                                 : 448 Kbps
    Channel(s)                               : 6 channels
    Channel positions                        : Front: L C R, Side: L R, LFE
    Sampling rate                            : 48.0 KHz
    Bit depth                                : 16 bits
    Compression mode                         : Lossy
    Stream size                              : 295 MiB (21%)
    Alignment                                : Split accross interleaves

    Скриншоты:

    Каталог Новинок (Фильмы-трейлеры, Игры, Сериалы, Мультфильмы)

    © Оформление by Ворон
    pb.wtf



  • Скачать Лифт: Три минуты могут изменить вашу жизнь через торрент http://pic.kartinco.top/images/6/ordi9.jpg Скачать фильм Лифт: Три минуты могут изменить вашу жизнь через торрент бесплантно в хорошем качестве Описание:Известный телеведущий оказывается запертым в лифте с женщиной по имени Катрин, которая считает, что его шоу провоцирует ... 5.5 10 4
    Торрент: Зарегистрирован [2015-01-19 18:45] · скачан: 108 раз
    Статус: T временная
    Размер: 1.4 GB
    Как cкачать? Как скачать Лифт: Три минуты могут изменить вашу жизнь через торрент | qTorrent

    % Раздел Тема Автор DL S | L
    T Фильмы [HD 720p, 1080p] (Звук Cam, VO, DVO) [ 7.82 GB ] Лифт: Три минуты могут изменить вашу жизнь / The Elevator: Three Minutes Can Change Your Life [2013 BDRip 1080p Любительский [den904 DeadSno] Ворон Скачать
    1 | 0

    28-11-2019 20:33  

    Отключить всю рекламу на сайте

      Дорогой пользователь! Огромная просьба, поблагодарите релизера, оцените раздачу и оставьте свои комментарий, если Вы скачали Лифт: Три минуты могут изменить вашу жизнь через торрент бесплатно! Внесите свою лепту в развитие PiratBit!
      Комментировать посты могут только пользователи прошедшие не сложную регистрацию
      Показать сообщения:    

      Лифт: Три минуты могут изменить вашу жизнь через торрент
      Скачать бесплатно Лифт: Три минуты могут изменить вашу жизнь
      Лифт: Три минуты могут изменить вашу жизнь скачать торрент
      Лифт: Три минуты могут изменить вашу жизнь смотреть онлайн
      Cкачать фильм Лифт: Три минуты могут изменить вашу жизнь бесплатно
      Лифт: Три минуты могут изменить вашу жизнь скачать торрент в хорошем качестве
      Лифт: Три минуты могут изменить вашу жизнь смотреть онлайн бесплатно в хорошем качестве


      Вы не можете начинать темы
      Вы не можете отвечать на сообщения
      Вы не можете редактировать свои сообщения
      Вы не можете удалять свои сообщения
      Вы не можете голосовать в опросах
      Вы не можете прикреплять файлы к сообщениям
      Вы можете скачивать файлы