Всегда рабочее зеркало без VPN и Proxy просто перед .vidak.icu напиши любое слово или цифру, Пример http://g6vy.vidak.icu

Лицензия

MVO

1 сезон

1

1 сезон

iTunes

1 сезон

13

1 сезон

Deluxe

pack

Рекомендуем

Repack

30

ВАЖНО

RePack

MK11

RePack

jed

RePack

fifa19

RePack

RDR2

RePack

NEED FOR SPEED™ PAYBACK

Кинопоиск HD

6 сезон

 Острые козырьки 6 сезон

Все сериалы

все сериалы на PB.wtf

RePack

FAR CRY 5
  
Magnet ссылка

Хардкорное диско / Hardkor Disko (Кшиштоф Сконечны ) [2014, драма, DVDRip, Любительский (одноголосый) [datynet] pb.wtf

Хардкорное диско через торрент pb.wtf

Размер: 1.35 GB | Добавлен: 7 лет 6 мес. назад | Торрент скачан:101 раз
Смотреть онлайн Хардкорное диско | Скачать    Ребята, помогите собрать деньги на оплату серверов!!!

20-01-2015 13:43 Хардкорное диско Скачать торрент  


Хардкорное диско / Hardkor Disko


Год выпуска:2014
Страна: Польша
Жанр:драма
Продолжительность:01:23:15
Перевод:Любительский (одноголосый) [datynet] - перевод на русский язык [Антонио]
Режиссер:Кшиштоф Сконечны

  • В ролях:

    Марцин Ковальчик (Marcin), Жасмин Полак (Ola Wróblewska), Agnieszka Wosinska (Pola Wróblewska), Януш Хабёр (Olek Wróblewski), Ewa Skonieczna (Young Ola Wróblewska), Кшиштоф Сконечны («Silny»), Шимон Новак (House's Owner), Лех Лотоцкий (Taxi Driver), Мацей Навроцки
  • Описание:
    Современный метрополис. Родители-нувориши и их гедонисты-дети живут в мире, где злоба и напряжение достигают взрывоопасного уровня. Марцин, недавно перебравшийся в столицу из провинции, знакомится с Олей. Девушка вводит своего нового знакомого в мир наркотиков, бесконечных богемных тусовок и нелегальных автогонок. Ни она, ни её родители не подозревают, что у Марцина не так прост, как кажется на первый взгляд, и в его голове зреет хитрый план...

  • Мировая премьера:1 апреля 2014

    Качество: DVDRip
    Формат:AVI
    Видео кодек: XviD
    Аудио кодек:AC3
    Видео: XviD, 720x304 (2.35:1), 1412 kbps, 25 fps, 0,241 bpp
    Аудио №1: AC3 / 2.0 / 48 kHz / 448 kbps / Любительский одноголосый [den904]
    Аудио №2: AC3 / 5.1 / 48 kHz / 448 kbps / английский


    Код:

    General
    Complete name                            : D:\Торенты\Hardkor.Disko.2014.DVDRip.CINEMANIA.avi
    Format                                   : AVI
    Format/Info                              : Audio Video Interleave
    File size                                : 1.35 GiB
    Duration                                 : 1h 23mn
    Overall bit rate                         : 2 320 Kbps
    Writing application                      : VirtualDubMod 1.5.10.2 (build 2542/release)
    Writing library                          : VirtualDubMod build 2542/release

    Video
    ID                                       : 0
    Format                                   : MPEG-4 Visual
    Format profile                           : Advanced [email protected]
    Format settings, BVOP                    : 1
    Format settings, QPel                    : No
    Format settings, GMC                     : No warppoints
    Format settings, Matrix                  : Default (MPEG)
    Codec ID                                 : XVID
    Codec ID/Hint                            : XviD
    Duration                                 : 1h 23mn
    Bit rate                                 :1412 Kbps
    Width                                    : 720 pixels
    Height                                   : 304 pixels
    Display aspect ratio                     : 2.35:1
    Frame rate                               : 25.000 fps
    Color space                              : YUV
    Chroma subsampling                       : 4:2:0
    Bit depth                                : 8 bits
    Scan type                                : Progressive
    Compression mode                         : Lossy
    Bits/(Pixel*Frame)                       : 0.241
    Stream size                              : 787 MiB (57%)
    Writing library                          : XviD 1.2.1 (UTC 2008-12-04)

    Audio #1
    ID                                       : 1
    Format                                   : AC-3
    Format/Info                              : Audio Coding 3
    Mode extension                           : CM (complete main)
    Codec ID                                 : 2000
    Duration                                 : 1h 23mn
    Bit rate mode                            : Constant
    Bit rate                                 : 448 Kbps
    Channel(s)                               : 2 channels
    Channel positions                        : Front: L R
    Sampling rate                            : 48.0 KHz
    Bit depth                                : 16 bits
    Compression mode                         : Lossy
    Stream size                              : 267 MiB (19%)
    Alignment                                : Split accross interleaves

    Audio #2
    ID                                       : 2
    Format                                   : AC-3
    Format/Info                              : Audio Coding 3
    Mode extension                           : CM (complete main)
    Codec ID                                 : 2000
    Duration                                 : 1h 22mn
    Bit rate mode                            : Constant
    Bit rate                                 : 448 Kbps
    Channel(s)                               : 6 channels
    Channel positions                        : Front: L C R, Side: L R, LFE
    Sampling rate                            : 48.0 KHz
    Bit depth                                : 16 bits
    Compression mode                         : Lossy
    Stream size                              : 264 MiB (19%)
    Alignment                                : Split accross interleaves

    Скриншоты:

    Каталог Новинок (Фильмы-трейлеры, Игры, Сериалы, Мультфильмы)

    © Оформление by Ворон
    pb.wtf



  • Скачать Хардкорное диско через торрент https://pic1.kartinco.top/images/61/ordi9.jpg Скачать, смотреть онлайн Хардкорное диско бесплантно в хорошем качестве Описание:Современный метрополис. Родители-нувориши и их гедонисты-дети живут в мире, где злоба и напряжение достигают взрывоопасного ... 10 10 2
    Торрент: Зарегистрирован [2015-01-20 13:43] · скачан: 101 раз
    Статус: T временная
    Размер: 1.35 GB
    Как cкачать? Как скачать Хардкорное диско через торрент | UTorrent

    28-11-2019 20:33  

    Отключить вcю реклaмy на сайте

      Дорогой пользователь! Огромная просьба, поблагодарите релизера, оцените раздачу и оставьте свои комментарий, если Вы скачали Хардкорное диско через торрент бесплатно!
      Комментировать посты могут только пользователи прошедшие не сложную регистрацию
      Показать сообщения:    

      Хардкорное диско через торрент
      Скачать бесплатно Хардкорное диско
      Хардкорное диско скачать торрент
      Хардкорное диско смотреть онлайн
      Cкачать фильм Хардкорное диско бесплатно
      Хардкорное диско скачать торрент в хорошем качестве
      Хардкорное диско смотреть онлайн бесплатно в хорошем качестве


      Вы не можете начинать темы
      Вы не можете отвечать на сообщения
      Вы не можете редактировать свои сообщения
      Вы не можете удалять свои сообщения
      Вы не можете голосовать в опросах
      Вы не можете прикреплять файлы к сообщениям
      Вы можете скачивать файлы