Доктор Стрэндж

Лицензия

Добыча

Дубляж

Дом дракона

1 сезон

Тор

Дубляж

В эфире

Дубляж

Там, где раки поют

MVO

Властелин колец

1 сезон

GLOBAL

pack

Рекомендуем

30

Пиратка

ВАЖНО

ВАЖНО

Ghostwire

Пиратка

jed

RePack

nioh2

RePack

RDR2

RePack

NEED FOR SPEED™ PAYBACK

RePack

скачать торрент

Кинопоиск HD

Острые козырьки 6 сезон

6 сезон

FAR CRY 6

RePack

скачать торрент

Лицензия

скачать торрент

MVO

1

1 сезон

скачать торрент

1 сезон

скачать торрент

Лицензия

  

Азбука смерти 2 / The ABCs of Death 2 (Родни Ашер , Джулиан Бэррэтт , Robert Boocheck ) [2014, ужасы, комедия, BDRip 720p, Любительский (двухголосый) [den904, DeadSno]

Азбука смерти 2 через торрент pb.wtf

Размер: 5.77 GB | Добавлен: 7 лет 10 мес. назад | Торрент скачан:119 раз
Смотреть онлайн | Скачать   

20-01-2015 21:02 Азбука смерти 2 Скачать торрент  

Азбука смерти 2 / The ABCs of Death 2
«Some people never learn»

Год выпуска:2014
Страна:США, Новая Зеландия, Канада, Израиль, Япония
Жанр:ужасы, комедия
Продолжительность: 02:02:11
Перевод:Любительский (двухголосый) [den904, DeadSno]
Субтитры: русские,
Режиссер:Родни Ашер , Джулиан Бэррэтт , Robert Boocheck
В ролях:

Тристан Риск, Мартина Гарсия, Беатрис Даль (Grandmother (segment 'X is for Xylophone')), Лоуренс Р. Харви (wanker (segment 'T' / 'Wanker')), Джерод Мигер (Dylan (segment 'V')), Энди Найман, С. Эрнст Харт (Porn Guy #1 (segment 'T is for Torture Porn')), Мигель Анхель Муньос, Иван Гонсалес (The father), Йен Вирго (Fletcher (segment)), Alys Crocker (Actor (segment U)), Виктория Брум (Miriam (segment S))
  • Описание:
    Приготовьтесь к продолжению убийств по алфавиту! 26 новых режиссёров и ещё 26 смертей на экране заставят вас трепетать от ужаса и обагрят ваши лица кровью.


    Качество: BDRip 720p
    Формат:MKV
    Видео кодек: AVC
    Аудио кодек:AC3, DTS
    Видео: AVC, 1280x720 (16:9), 4869 kbps, 24 fps, 0,220 bpp
    Аудио №1: русский / AC3 / 5.1 / 48 kHz / 384 kbps / 16 bit ||
    Аудио №2: английский / DTS / 5.1 / 48 kHz / 1510 kbps / 16 bit

    Код:

    General
    Unique ID                                : 179625471450588765915384806342615572528 (0x87229B8025F06664B5C1BA3159772030)
    Complete name                            : D:\Торенты\ABCs.of.Death.2.2014.Blu.Ray.720p.CINEMANIA.mkv
    Format                                   : Matroska
    Format version                           : Version 4 / Version 2
    File size                                : 5.77 GiB
    Duration                                 : 2h 2mn
    Overall bit rate                         : 6 765 Kbps
    Movie name                               : Release Group CINEMANIA
    Encoded date                             : UTC 2015-01-20 01:11:59
    Writing application                      : mkvmerge v7.5.0 ('Glass Culture') 64bit built on Jan  4 2015 16:48:44
    Writing library                          : libebml v1.3.1 + libmatroska v1.4.2

    Video
    ID                                       : 1
    Format                                   : AVC
    Format/Info                              : Advanced Video Codec
    Format profile                           : [email protected]
    Format settings, CABAC                   : Yes
    Format settings, ReFrames                : 5 frames
    Codec ID                                 : V_MPEG4/ISO/AVC
    Duration                                 : 2h 2mn
    Bit rate                                 : 4 869 Kbps
    Width                                    : 1 280 pixels
    Height                                   : 720 pixels
    Display aspect ratio                     : 16:9
    Frame rate                               : 24.000 fps
    Color space                              : YUV
    Chroma subsampling                       : 4:2:0
    Bit depth                                : 8 bits
    Scan type                                : Progressive
    Bits/(Pixel*Frame)                       : 0.220
    Stream size                              : 4.04 GiB (70%)
    Title                                    : Release Group CINEMANIA
    Writing library                          : x264 core 142 r2491 24e4fed
    Encoding settings                        : cabac=1 / ref=5 / deblock=1:0:0 / analyse=0x3:0x133 / me=umh / subme=8 / psy=1 / psy_rd=1.00:0.00 / mixed_ref=1 / me_range=16 / chroma_me=1 / trellis=1 / 8x8dct=1 / cqm=0 / deadzone=21,11 / fast_pskip=0 / chroma_qp_offset=-2 / threads=12 / lookahead_threads=2 / sliced_threads=0 / nr=0 / decimate=1 / interlaced=0 / bluray_compat=0 / constrained_intra=0 / bframes=3 / b_pyramid=2 / b_adapt=1 / b_bias=0 / direct=1 / weightb=1 / open_gop=0 / weightp=2 / keyint=250 / keyint_min=23 / scenecut=40 / intra_refresh=0 / rc_lookahead=40 / rc=2pass / mbtree=1 / bitrate=4869 / ratetol=1.0 / qcomp=0.60 / qpmin=0 / qpmax=69 / qpstep=4 / cplxblur=20.0 / qblur=0.5 / ip_ratio=1.40 / aq=1:1.00
    Language                                 : English
    Default                                  : Yes
    Forced                                   : No

    Audio #1
    ID                                       : 2
    Format                                   : AC-3
    Format/Info                              : Audio Coding 3
    Mode extension                           : CM (complete main)
    Codec ID                                 : A_AC3
    Duration                                 : 2h 2mn
    Bit rate mode                            : Constant
    Bit rate                                 : 384 Kbps
    Channel(s)                               : 6 channels
    Channel positions                        : Front: L C R, Side: L R, LFE
    Sampling rate                            : 48.0 KHz
    Bit depth                                : 16 bits
    Compression mode                         : Lossy
    Stream size                              : 336 MiB (6%)
    Title                                    : Влад и Снежинка
    Language                                 : Russian
    Default                                  : Yes
    Forced                                   : Yes

    Audio #2
    ID                                       : 3
    Format                                   : DTS
    Format/Info                              : Digital Theater Systems
    Codec ID                                 : A_DTS
    Duration                                 : 2h 2mn
    Bit rate mode                            : Constant
    Bit rate                                 : 1 510 Kbps
    Channel(s)                               : 6 channels
    Channel positions                        : Front: L C R, Side: L R, LFE
    Sampling rate                            : 48.0 KHz
    Bit depth                                : 16 bits
    Compression mode                         : Lossy
    Stream size                              : 1.29 GiB (22%)
    Language                                 : English
    Default                                  : No
    Forced                                   : No

    Text
    ID                                       : 4
    Format                                   : UTF-8
    Codec ID                                 : S_TEXT/UTF8
    Codec ID/Info                            : UTF-8 Plain Text
    Language                                 : Russian
    Default                                  : Yes
    Forced                                   : Yes


    Скриншоты:

    Каталог Новинок (Фильмы-трейлеры, Игры, Сериалы, Мультфильмы)



  • Скачать Азбука смерти 2 через торрент https://pic1.kartinco.top/images/81/st7x4.jpg Скачать, смотреть онлайн Азбука смерти 2 бесплантно в хорошем качестве Описание:Приготовьтесь к продолжению убийств по алфавиту! 26 новых режиссёров и ещё 26 смертей на экране заставят вас трепетать от ужаса и ... 7.8 10 4
    Торрент: Зарегистрирован [2015-01-20 21:02] · скачан: 119 раз
    Статус: T временная
    Размер: 5.77 GB
    Как cкачать? Как скачать Азбука смерти 2 через торрент | UTorrent

    % Раздел Тема Автор DL S | L
    T Фильмы 2014 (Звук TS, Cam, VO, DVO) [ 2.06 GB ] Азбука смерти 2 / The ABCs of Death 2 | | HDRip, Любительский (двухголосый Ворон Скачать
    1 | 0

    28-11-2019 20:33  


    Отключить вcю реклaмy на сайте, в т.ч. и в плеере онлайн просмотра!

    22-01-2015 16:15 Азбука смерти 2 Скачать торрент  

    отличный фильмец



      Дорогой пользователь! Огромная просьба, поблагодарите релизера, оцените раздачу и оставьте свои комментарий, если Вы скачали Азбука смерти 2 через торрент бесплатно!!
      Комментировать посты могут только пользователи прошедшие не сложную регистрацию
      Показать сообщения:    


      Азбука смерти 2 через торрент
      Скачать бесплатно Азбука смерти 2
      Азбука смерти 2 скачать торрент
      Азбука смерти 2 смотреть онлайн
      Cкачать фильм Азбука смерти 2 бесплатно
      Азбука смерти 2 скачать торрент в хорошем качестве
      Азбука смерти 2 смотреть онлайн бесплатно в хорошем качестве
      Вы не можете начинать темы
      Вы не можете отвечать на сообщения
      Вы не можете редактировать свои сообщения
      Вы не можете удалять свои сообщения
      Вы не можете голосовать в опросах
      Вы не можете прикреплять файлы к сообщениям
      Вы можете скачивать файлы
      Азбука смерти 2 / The ABCs of Death 2 [2014, ужасы, комедия, BDRip 720p, Любительский [den904, DeadSno] смотреть онлайн, скачать торрент picoco.icu