Всегда рабочее зеркало без VPN и Proxy просто перед .vidak.icu напиши любое слово или цифру, Пример http://m0o1.vidak.icu

MVO

MVO

1 сезон

1

1 сезон

iTunes

1 сезон

13

1 сезон

Deluxe

pack

Рекомендуем

Repack

30

ВАЖНО

RePack

MK11

RePack

jed

RePack

fifa19

RePack

RDR2

RePack

NEED FOR SPEED™ PAYBACK

Кинопоиск HD

6 сезон

 Острые козырьки 6 сезон

Все сериалы

все сериалы на PB.wtf

RePack

FAR CRY 5
  
Magnet ссылка

Не моргай / Последняя остановка / Don't Blink / Last Stop (Трэвис Оутс / Travis Oates) [2014, США, ужасы, фантастика, детектив, WEB-DLRip, Любительский (двухголосый)[den904, DeadSno] pb.wtf

Не моргай через торрент pb.wtf

Размер: 1.34 GB | Добавлен: 7 лет 6 мес. назад | Торрент скачан:286 раз
Смотреть онлайн Не моргай | Скачать    Ребята, помогите собрать деньги на оплату серверов!!!

21-01-2015 01:59 Не моргай Скачать торрент  

Не моргай / Последняя остановка / Don't Blink / Last Stop


  • Год выпуска: 2014
  • Страна: США
  • Жанр: ужасы, фантастика, детектив
  • Продолжительность: 01:32:17
  • Перевод: Любительский (двухголосый)[DeadSno & den904] - перевод на русский язык [dsa69]

  • Режиссер: Трэвис Оутс / Travis Oates
  • В ролях:

    Мена Сувари (Tracy), Брайан Остин Грин (Jack), Джоэнн Келли (Claire), Фиона Губелманн (Ella), Роберт Пикардо (Man in Black), Зак Уорд (Alex), Девид де Латур (Noah), Лейф Гантвурт (Sam), Эмели О’Хара (Amelia), Кертисс Фрисл (Lucas), Саманта Джейкобс (Charlotte), Бутс Сауферлэнд (Sherrif)

  • Описание:
    Десять туристов прибывают на расположенную высоко в горах лыжную базу, но обнаруживают её совершенно покинутой. Поскольку у них не осталось топлива на обратный путь, героям приходится остаться здесь и попытаться выяснить, куда же подевались все сотрудники и посетители курорта. Со временем они понимают, что то, с чем они здесь столкнулись, едва ли можно объяснить рационально...
  • Рейтинг:



  • Качество: WEB-DLRip
  • Формат: :AVI
  • Видео кодек: XviD
  • Аудио кодек: AC3
  • Видео: 720x304 (2.35:1), 1677 kbps, 23,976 fps, 0,320 bpp
  • Аудио: 5.1 / 48 kHz / 384 kbps / 16 bit
  • Релиз от: GEKADOL

    Код:

    General
    Complete name                            : I:\Dont.Blink.2014.WEB-DLRip.CINEMANIA.avi
    Format                                   : AVI
    Format/Info                              : Audio Video Interleave
    File size                                : 1.34 GiB
    Duration                                 : 1h 32mn
    Overall bit rate                         : 2 071 Kbps
    Writing application                      : VirtualDubMod 1.5.10.2 (build 2542/release)
    Writing library                          : VirtualDubMod build 2542/release

    Video
    ID                                       : 0
    Format                                   : MPEG-4 Visual
    Format profile                           : Advanced [email protected]
    Format settings, BVOP                    : 2
    Format settings, QPel                    : No
    Format settings, GMC                     : No warppoints
    Format settings, Matrix                  : Default (H.263)
    Muxing mode                              : Packed bitstream
    Codec ID                                 : XVID
    Codec ID/Hint                            : XviD
    Duration                                 : 1h 32mn
    Bit rate                                 : 1 678 Kbps
    Width                                    : 720 pixels
    Height                                   : 304 pixels
    Display aspect ratio                     : 2.35:1
    Frame rate                               : 23.976 fps
    Color space                              : YUV
    Chroma subsampling                       : 4:2:0
    Bit depth                                : 8 bits
    Scan type                                : Progressive
    Compression mode                         : Lossy
    Bits/(Pixel*Frame)                       : 0.320
    Stream size                              : 1.08 GiB (81%)
    Writing library                          : XviD 64

    Audio
    ID                                       : 1
    Format                                   : AC-3
    Format/Info                              : Audio Coding 3
    Mode extension                           : CM (complete main)
    Codec ID                                 : 2000
    Duration                                 : 1h 32mn
    Bit rate mode                            : Constant
    Bit rate                                 : 384 Kbps
    Channel(s)                               : 6 channels
    Channel positions                        : Front: L C R, Side: L R, LFE
    Sampling rate                            : 48.0 KHz
    Bit depth                                : 16 bits
    Compression mode                         : Lossy
    Stream size                              : 253 MiB (19%)
    Alignment                                : Split accross interleaves
    Interleave, duration                     : 42 ms (1.00 video frame)
    Interleave, preload duration             : 500 ms




    Скриншоты:



    pb.wtf



  • Скачать Не моргай через торрент http://i64.fastpic.ru/big/2015/0121/a6/b404a24ba774c9246e8ac635d7a120a6.jpg Скачать, смотреть онлайн Не моргай бесплантно в хорошем качестве Описание: Десять туристов прибывают на расположенную высоко в горах лыжную базу, но обнаруживают её совершенно покинутой. Поскольку у них ... 8.2 10 5
    Торрент: Зарегистрирован [2015-01-21 01:59] · скачан: 286 раз
    Статус: T временная
    Размер: 1.34 GB
    Как cкачать? Как скачать Не моргай через торрент | UTorrent



    Последний раз редактировалось: GEKADOL (2015-01-21 04:45), всего редактировалось 1 раз

    28-11-2019 20:33  

    Отключить вcю реклaмy на сайте

    21-01-2015 14:29 Не моргай Скачать торрент  

    Фильм не о чем, жаль потраченного времениpb.wtf



    23-01-2015 09:09 Не моргай Скачать торрент  

    задумка очень интересная, ну как и все загадки, фильм только разжигает любопытство и кончается не чем...pb.wtf



      Дорогой пользователь! Огромная просьба, поблагодарите релизера, оцените раздачу и оставьте свои комментарий, если Вы скачали Не моргай через торрент бесплатно!
      Комментировать посты могут только пользователи прошедшие не сложную регистрацию
      Показать сообщения:    

      Не моргай через торрент
      Скачать бесплатно Не моргай
      Не моргай скачать торрент
      Не моргай смотреть онлайн
      Cкачать фильм Не моргай бесплатно
      Не моргай скачать торрент в хорошем качестве
      Не моргай смотреть онлайн бесплатно в хорошем качестве


      Вы не можете начинать темы
      Вы не можете отвечать на сообщения
      Вы не можете редактировать свои сообщения
      Вы не можете удалять свои сообщения
      Вы не можете голосовать в опросах
      Вы не можете прикреплять файлы к сообщениям
      Вы можете скачивать файлы