Ссылка на приватное зеркало всего за 1$. Внимание количество ограничено!!!

iTunes

iTunes

iTunes

1

iTunes

iTunes

iTunes

iTunes

iTunes

30
pack

$ от Little Big

ВАЖНО

!!Акция!!

Alien_RageХит недели

RePack

Resident Evil 21

ИГРА 18+

pack

RePack

jed

!!Акция!!

Alien_Rage

RePack

fifa19

RePack

Assassins Creed: Odyssey

RePack

NEED FOR SPEED™ PAYBACK

4 сезон

9 сезон

Бесстыжие 9 сезон

Все сериалы

все сериалы на PB.wtf

RePack

FAR CRY 5
  

Не моргай / Последняя остановка / Don't Blink / Last Stop (Трэвис Оутс / Travis Oates) [2014, США, ужасы, фантастика, детектив, WEB-DL 720p, Любительский (двухголосый)[den904, DeadSno] pb.wtf

Не моргай через торрент pb.wtf

Размер: 2.72 GB | Добавлен: 5 лет 5 мес. назад | Торрент скачан:53 раза
Скачать  

21-01-2015 06:50 Не моргай Скачать торрент  

Не моргай / Последняя остановка / Don't Blink / Last Stop


  • Год выпуска: 2014
  • Страна: США
  • Жанр: ужасы, фантастика, детектив
  • Продолжительность: 01:32:17
  • Перевод: Любительский (двухголосый)[DeadSno & den904] - перевод на русский язык [dsa69]
  • Субтитры: русские
  • Режиссер: Трэвис Оутс / Travis Oates
  • В ролях:

    Мена Сувари (Tracy), Брайан Остин Грин (Jack), Джоэнн Келли (Claire), Фиона Губелманн (Ella), Роберт Пикардо (Man in Black), Зак Уорд (Alex), Девид де Латур (Noah), Лейф Гантвурт (Sam), Эмели О’Хара (Amelia), Кертисс Фрисл (Lucas), Саманта Джейкобс (Charlotte), Бутс Сауферлэнд (Sherrif)

  • Описание:
    Десять туристов прибывают на расположенную высоко в горах лыжную базу, но обнаруживают её совершенно покинутой. Поскольку у них не осталось топлива на обратный путь, героям приходится остаться здесь и попытаться выяснить, куда же подевались все сотрудники и посетители курорта. Со временем они понимают, что то, с чем они здесь столкнулись, едва ли можно объяснить рационально...
  • Рейтинг:



  • Качество: WEB-DL 720p
  • Формат: :MKV
  • Видео кодек: AVC
  • Аудио кодек: AC3
  • Видео: 1280x532 (2.40:1), 3500 kbps, 23,976 fps, 0,214 bpp
  • Аудио №1: русский / 5.1 / 48 kHz / 384 kbps / 16 bit
  • Аудио №2: английский / 5.1 / 48 kHz / 384 kbps / 16 bit
  • Релиз от: GEKADOL

    Код:

    General
    Unique ID                                : 221013619434326670323085820424597416827 (0xA645ACBE4A4813B8A933C958A2862B7B)
    Complete name                            : D:\Фильмы\Dont.Blink.2014.WEB-DL.720p.CINEMANIA.mkv
    Format                                   : Matroska
    Format version                           : Version 4 / Version 2
    File size                                : 2.72 GiB
    Duration                                 : 1h 32mn
    Overall bit rate                         : 4 223 Kbps
    Movie name                               : Release Group CINEMANIA
    Encoded date                             : UTC 2015-01-20 23:12:33
    Writing application                      : mkvmerge v7.5.0 ('Glass Culture') 64bit built on Jan  4 2015 16:48:44
    Writing library                          : libebml v1.3.1 + libmatroska v1.4.2

    Video
    ID                                       : 1
    Format                                   : AVC
    Format/Info                              : Advanced Video Codec
    Format profile                           : Main@L3.1
    Format settings, CABAC                   : Yes
    Format settings, ReFrames                : 4 frames
    Codec ID                                 : V_MPEG4/ISO/AVC
    Duration                                 : 1h 32mn
    Bit rate                                 : 3 500 Kbps
    Width                                    : 1 280 pixels
    Height                                   : 532 pixels
    Display aspect ratio                     : 2.40:1
    Frame rate                               : 23.976 fps
    Color space                              : YUV
    Chroma subsampling                       : 4:2:0
    Bit depth                                : 8 bits
    Scan type                                : Progressive
    Bits/(Pixel*Frame)                       : 0.214
    Stream size                              : 2.17 GiB (80%)
    Title                                    : Release Group CINEMANIA
    Writing library                          : x264 core 142 r2479 dd79a61
    Encoding settings                        : cabac=1 / ref=2 / deblock=1:0:0 / analyse=0x1:0x111 / me=umh / subme=8 / psy=1 / psy_rd=1.00:0.00 / mixed_ref=1 / me_range=16 / chroma_me=1 / trellis=1 / 8x8dct=0 / cqm=0 / deadzone=21,11 / fast_pskip=1 / chroma_qp_offset=-2 / threads=12 / lookahead_threads=2 / sliced_threads=0 / nr=0 / decimate=1 / interlaced=0 / bluray_compat=0 / constrained_intra=0 / bframes=3 / b_pyramid=2 / b_adapt=2 / b_bias=0 / direct=3 / weightb=1 / open_gop=0 / weightp=2 / keyint=240 / keyint_min=24 / scenecut=40 / intra_refresh=0 / rc_lookahead=50 / rc=abr / mbtree=1 / bitrate=3500 / ratetol=1.0 / qcomp=0.60 / qpmin=0 / qpmax=69 / qpstep=4 / vbv_maxrate=14000 / vbv_bufsize=14000 / nal_hrd=none / filler=0 / ip_ratio=1.40 / aq=1:1.00
    Default                                  : Yes
    Forced                                   : No
    Color primaries                          : BT.709-5, BT.1361, IEC 61966-2-4, SMPTE RP177
    Transfer characteristics                 : BT.709-5, BT.1361
    Matrix coefficients                      : BT.709-5, BT.1361, IEC 61966-2-4 709, SMPTE RP177

    Audio #1
    ID                                       : 2
    Format                                   : AC-3
    Format/Info                              : Audio Coding 3
    Mode extension                           : CM (complete main)
    Codec ID                                 : A_AC3
    Duration                                 : 1h 32mn
    Bit rate mode                            : Constant
    Bit rate                                 : 384 Kbps
    Channel(s)                               : 6 channels
    Channel positions                        : Front: L C R, Side: L R, LFE
    Sampling rate                            : 48.0 KHz
    Bit depth                                : 16 bits
    Compression mode                         : Lossy
    Delay relative to video                  : -83ms
    Stream size                              : 254 MiB (9%)
    Title                                    : Влад и Снежинка
    Language                                 : Russian
    Default                                  : Yes
    Forced                                   : Yes

    Audio #2
    ID                                       : 3
    Format                                   : AC-3
    Format/Info                              : Audio Coding 3
    Mode extension                           : CM (complete main)
    Codec ID                                 : A_AC3
    Duration                                 : 1h 32mn
    Bit rate mode                            : Constant
    Bit rate                                 : 384 Kbps
    Channel(s)                               : 6 channels
    Channel positions                        : Front: L C R, Side: L R, LFE
    Sampling rate                            : 48.0 KHz
    Bit depth                                : 16 bits
    Compression mode                         : Lossy
    Stream size                              : 254 MiB (9%)
    Language                                 : English
    Default                                  : No
    Forced                                   : No

    Text
    ID                                       : 4
    Format                                   : UTF-8
    Codec ID                                 : S_TEXT/UTF8
    Codec ID/Info                            : UTF-8 Plain Text
    Language                                 : Russian
    Default                                  : Yes
    Forced                                   : Yes

    Menu
    00:00:00.000                             : :1
    00:06:18.169                             : :2
    00:14:48.179                             : :3
    00:23:14.184                             : :4
    00:30:59.149                             : :5
    00:41:04.128                             : :6
    00:48:46.132                             : :7
    00:57:12.137                             : :8
    01:07:45.186                             : :9
    01:15:04.125                             : :10
    01:24:31.191                             : :11
    01:29:39.124                             : :12




    Скриншоты:



    pb.wtf



  • Скачать Не моргай через торрент http://i64.fastpic.ru/big/2015/0121/96/4e2337dff65c25f78644e4fb578dcd96.jpg Скачать фильм Не моргай через торрент бесплантно в хорошем качестве Описание: Десять туристов прибывают на расположенную высоко в горах лыжную базу, но обнаруживают её совершенно покинутой. Поскольку у них ... 7 10 6
    Торрент: Зарегистрирован [2015-01-21 06:50] · скачан: 53 раз
    Статус: T временная
    Размер: 2.72 GB
    Как cкачать? Как скачать Не моргай через торрент | qTorrent



    Последний раз редактировалось: GEKADOL (2015-01-21 07:06), всего редактировалось 2 раз(а)

    28-11-2019 20:33  

    Отключить всю рекламу на сайте

    21-01-2015 07:03 Не моргай Скачать торрент  

    Полтора часа в пустую потраченного времени. Бредятина полная.pb.wtf



    21-01-2015 14:30 Не моргай Скачать торрент  

    RuSS56, полностью согласенpb.wtf



      Дорогой пользователь! Огромная просьба, поблагодарите релизера, оцените раздачу и оставьте свои комментарий, если Вы скачали Не моргай через торрент бесплатно! Внесите свою лепту в развитие PiratBit!
      Комментировать посты могут только пользователи прошедшие не сложную регистрацию
      Показать сообщения:    

      Не моргай через торрент
      Скачать бесплатно Не моргай
      Не моргай скачать торрент
      Не моргай смотреть онлайн
      Cкачать фильм Не моргай бесплатно
      Не моргай скачать торрент в хорошем качестве
      Не моргай смотреть онлайн бесплатно в хорошем качестве


      Вы не можете начинать темы
      Вы не можете отвечать на сообщения
      Вы не можете редактировать свои сообщения
      Вы не можете удалять свои сообщения
      Вы не можете голосовать в опросах
      Вы не можете прикреплять файлы к сообщениям
      Вы можете скачивать файлы