Death Stranding+DLC+АВТОАКТИВАЦИЯ

iTunes

iTunes

iTunes

1

iTunes

iTunes

iTunes

iTunes

iTunes

30
pack

$ от Little Big

ВАЖНО

!!Акция!!

Alien_RageХит недели

RePack

Resident Evil 21

ИГРА 18+

pack

RePack

jed

!!Акция!!

Alien_Rage

RePack

fifa19

RePack

Assassins Creed: Odyssey

RePack

NEED FOR SPEED™ PAYBACK

4 сезон

9 сезон

Бесстыжие 9 сезон

Все сериалы

все сериалы на PB.wtf

RePack

FAR CRY 5
  

Не моргай / Последняя остановка / Don't Blink (Трэвис Оутс ) [2014, ужасы, фантастика, детектив, WEB-DL 1080p, Любительский (двухголосый) [den904, DeadSno] pb.wtf

Не моргай через торрент pb.wtf

Размер: 3.03 GB | Добавлен: 5 лет 5 мес. назад | Торрент скачан:117 раз
Скачать  

21-01-2015 08:55 Не моргай Скачать торрент  


Последняя остановка / Don't Blink


Год выпуска:2014
Страна:США
Жанр:ужасы, фантастика, детектив
Продолжительность: 01:32:17
Перевод:Любительский (двухголосый) [den904, DeadSno]
Субтитры: русские,
Режиссер:Трэвис Оутс
В ролях:

Мена Сувари (Tracy), Брайан Остин Грин (Jack), Джоэнн Келли (Claire), Фиона Губелманн (Ella), Роберт Пикардо (Man in Black), Зак Уорд (Alex), Девид де Латур (Noah), Лейф Гантвурт (Sam), Эмели О’Хара (Amelia), Кертисс Фрисл (Lucas), Саманта Джейкобс (Charlotte), Бутс Сауферлэнд (Sherrif)
  • Описание:
    Десять туристов прибывают на расположенную высоко в горах лыжную базу, но обнаруживают её совершенно покинутой. Поскольку у них не осталось топлива на обратный путь, героям приходится остаться здесь и попытаться выяснить, куда же подевались все сотрудники и посетители курорта. Со временем они понимают, что то, с чем они здесь столкнулись, едва ли можно объяснить рационально...


    Качество: WEB-DL 1080p
    Формат:MKV
    Видео кодек: AVC
    Аудио кодек:AC3
    Видео: AVC, 1916x796 (2.40:1), 3834 kbps, 23,976 fps, 0,105 bpp
    Аудио №1: русский / AC3 / 5.1 / 48 kHz / 384 kbps / 16 bit ||
    Аудио №2: английский / AC3 / 5.1 / 48 kHz / 384 kbps / 16 bit
    Навигация по главам: есть

    Код:

    General
    Unique ID                                : 215169279709332199595698867332643269444 (0xA1E0188C46AF284D9CFD7FB2131FAB44)
    Complete name                            : D:\Торенты\Dont.Blink.2014.WEB-DL.1080p.CINEMANIA.mkv
    Format                                   : Matroska
    Format version                           : Version 4 / Version 2
    File size                                : 3.03 GiB
    Duration                                 : 1h 32mn
    Overall bit rate                         : 4 696 Kbps
    Movie name                               : Release Group CINEMANIA
    Encoded date                             : UTC 2015-01-20 23:07:40
    Writing application                      : mkvmerge v7.5.0 ('Glass Culture') 64bit built on Jan  4 2015 16:48:44
    Writing library                          : libebml v1.3.1 + libmatroska v1.4.2

    Video
    ID                                       : 1
    Format                                   : AVC
    Format/Info                              : Advanced Video Codec
    Format profile                           : High@L4.0
    Format settings, CABAC                   : Yes
    Format settings, ReFrames                : 5 frames
    Codec ID                                 : V_MPEG4/ISO/AVC
    Duration                                 : 1h 32mn
    Bit rate                                 : 3 834 Kbps
    Width                                    : 1 916 pixels
    Height                                   : 796 pixels
    Display aspect ratio                     : 2.40:1
    Frame rate                               : 23.976 fps
    Color space                              : YUV
    Chroma subsampling                       : 4:2:0
    Bit depth                                : 8 bits
    Scan type                                : Progressive
    Bits/(Pixel*Frame)                       : 0.105
    Stream size                              : 2.47 GiB (82%)
    Title                                    : Release Group CINEMANIA
    Language                                 : English
    Default                                  : Yes
    Forced                                   : No
    Color primaries                          : BT.709-5, BT.1361, IEC 61966-2-4, SMPTE RP177
    Transfer characteristics                 : BT.709-5, BT.1361
    Matrix coefficients                      : BT.709-5, BT.1361, IEC 61966-2-4 709, SMPTE RP177

    Audio #1
    ID                                       : 2
    Format                                   : AC-3
    Format/Info                              : Audio Coding 3
    Mode extension                           : CM (complete main)
    Codec ID                                 : A_AC3
    Duration                                 : 1h 32mn
    Bit rate mode                            : Constant
    Bit rate                                 : 384 Kbps
    Channel(s)                               : 6 channels
    Channel positions                        : Front: L C R, Side: L R, LFE
    Sampling rate                            : 48.0 KHz
    Bit depth                                : 16 bits
    Compression mode                         : Lossy
    Stream size                              : 254 MiB (8%)
    Language                                 : Russian
    Default                                  : Yes
    Forced                                   : Yes

    Audio #2
    ID                                       : 3
    Format                                   : AC-3
    Format/Info                              : Audio Coding 3
    Mode extension                           : CM (complete main)
    Codec ID                                 : A_AC3
    Duration                                 : 1h 32mn
    Bit rate mode                            : Constant
    Bit rate                                 : 384 Kbps
    Channel(s)                               : 6 channels
    Channel positions                        : Front: L C R, Side: L R, LFE
    Sampling rate                            : 48.0 KHz
    Bit depth                                : 16 bits
    Compression mode                         : Lossy
    Stream size                              : 254 MiB (8%)
    Language                                 : English
    Default                                  : No
    Forced                                   : No

    Text
    ID                                       : 4
    Format                                   : UTF-8
    Codec ID                                 : S_TEXT/UTF8
    Codec ID/Info                            : UTF-8 Plain Text
    Language                                 : Russian
    Default                                  : Yes
    Forced                                   : Yes

    Menu
    00:00:00.000                             : en:1
    00:06:18.000                             : en:2
    00:14:48.000                             : en:3
    00:23:14.000                             : en:4
    00:30:59.000                             : en:5
    00:41:04.000                             : en:6
    00:48:46.000                             : en:7
    00:57:12.000                             : en:8
    01:07:45.000                             : en:9
    01:15:04.000                             : en:10
    01:24:31.000                             : en:11
    01:29:39.000                             : en:12


    Скриншоты:

    Каталог Новинок (Фильмы-трейлеры, Игры, Сериалы, Мультфильмы)

    © Оформление by Ворон
    pb.wtf



  • Скачать Не моргай через торрент http://pic.kartinco.top/images/6/ordi9.jpg Скачать фильм Не моргай через торрент бесплантно в хорошем качестве Описание:Десять туристов прибывают на расположенную высоко в горах лыжную базу, но обнаруживают её совершенно покинутой. Поскольку у них не ... 10 10 5
    Торрент: Зарегистрирован [2015-01-21 08:55] · скачан: 117 раз
    Статус: T временная
    Размер: 3.03 GB
    Как cкачать? Как скачать Не моргай через торрент | qTorrent

    28-11-2019 20:33  

    Отключить всю рекламу на сайте

      Дорогой пользователь! Огромная просьба, поблагодарите релизера, оцените раздачу и оставьте свои комментарий, если Вы скачали Не моргай через торрент бесплатно! Внесите свою лепту в развитие PiratBit!
      Комментировать посты могут только пользователи прошедшие не сложную регистрацию
      Показать сообщения:    

      Не моргай через торрент
      Скачать бесплатно Не моргай
      Не моргай скачать торрент
      Не моргай смотреть онлайн
      Cкачать фильм Не моргай бесплатно
      Не моргай скачать торрент в хорошем качестве
      Не моргай смотреть онлайн бесплатно в хорошем качестве


      Вы не можете начинать темы
      Вы не можете отвечать на сообщения
      Вы не можете редактировать свои сообщения
      Вы не можете удалять свои сообщения
      Вы не можете голосовать в опросах
      Вы не можете прикреплять файлы к сообщениям
      Вы можете скачивать файлы