2 сезон

iTunes

1 сезон

1

iTunes

iTunes

iTunes

1 сезон

RePack

30

ИГРА 18+

pack

ВАЖНО

!!Акция!!

Alien_RageХит недели

RePack

MK11
pack

Забери бонус

RePack

jed

!!Акция!!

Alien_Rage

RePack

fifa19

RePack

Assassins Creed: Odyssey

RePack

NEED FOR SPEED™ PAYBACK

4 сезон

9 сезон

Бесстыжие 9 сезон

Все сериалы

все сериалы на PB.wtf

RePack

FAR CRY 5
  

Дракула / Dracula Untold (Гари Шор ) [2014, ужасы, фэнтези, боевик, BDRip 1080p, Дубляж] iTunes от R.G. HD-Films pb.wtf

Дракула через торрент pb.wtf

Размер: 7.33 GB | Добавлен: 5 лет 9 мес. назад | Торрент скачан:303 раза
Скачать  

21-01-2015 09:30 Дракула Скачать торрент  


Дракула / Dracula Untold
«Легенда обретёт бессмертие»

Год выпуска:2014
Страна: США
Жанр:ужасы, фэнтези, боевик, драма, военный
Продолжительность:01:32:08
Перевод:Дубляж - [Лицензия / iTunes]
Режиссер:Гари Шор

  • В ролях:

    Люк Эванс (Vlad), Сара Гадон (Mirena), Доминик Купер (Mehmed), Арт Паркинсон (Ingeras), Чарльз Дэнс (Master Vampire), Дайармейд Мерта (Dumitru), Пол Кэй (Brother Lucian), Уильям Хьюстон (Cazan), Ной Хантли (Captain Petru), Ронан Вайберт (Simion), Зэк МакГоун (Shkelgim), Фердинанд Кингсли (Hamza Bey)
  • Описание:
    Влад Дракула был величайшим правителем, доблестным воином и страстным мужчиной. Но судьба свела его с врагом, коварство которого не знало границ. И тогда Дракула заключил сделку - нечеловеческая сила в обмен на самую малость - бессмертную душу...

  • Мировая премьера:1 октября 2014

    Качество: BDRip 1080p
    Формат:MKV
    Видео кодек: AVC
    Аудио кодек:AC3
    Видео: AVC, 1920x800 (2.40:1), 23.976 fps, 10.8 Mbps (0.293 bit/pixel)
    Аудио: русский / AC3 / 5.1 / 48 kHz / 384 kbps / 16 bit ||
    Навигация по главам: есть


    Код:

    General
    Unique ID                   : 190008680923897660321256930192739631686 (0x8EF25740891E737BB9672AB098358246)
    Complete name               : D:\Торенты\Раздачи\Dracula.Untold.2014.1080p. _Release for _R.G. HD-Films.mkv
    Format                      : Matroska
    Format version              : Version 4 / Version 2
    File size                   : 7.33 GiB
    Duration                    : 1h 32mn
    Overall bit rate            : 11.4 Mbps
    Movie name                  :  Release for _R.G. HD-Films
    Encoded date                : UTC 2015-01-21 09:13:31
    Writing application         : mkvmerge v7.4.0 ('Circles') 64bit built on Dec 12 2014 12:19:56
    Writing library             : libebml v1.3.0 + libmatroska v1.4.1
    Attachements                : cover.PNG
    DURATION                    : 01:32:08.288000000
    NUMBER_OF_FRAMES            : 172759
    NUMBER_OF_BYTES             : 265357824
    _STATISTICS_WRITING_APP     : mkvmerge v7.4.0 ('Circles') 64bit built on Dec 12 2014 12:19:56
    _STATISTICS_WRITING_DATE_UT : 2015-01-21 09:13:31
    _STATISTICS_TAGS            : BPS DURATION NUMBER_OF_FRAMES NUMBER_OF_BYTES

    Video
    ID                          : 1
    Format                      : AVC
    Format/Info                 : Advanced Video Codec
    Format profile              : High@L4.1
    Format settings, CABAC      : Yes
    Format settings, ReFrames   : 5 frames
    Codec ID                    : V_MPEG4/ISO/AVC
    Duration                    : 1h 32mn
    Bit rate                    : 10.8 Mbps
    Width                       : 1 920 pixels
    Height                      : 800 pixels
    Display aspect ratio        : 2.40:1
    Frame rate mode             : Constant
    Frame rate                  : 23.976 fps
    Color space                 : YUV
    Chroma subsampling          : 4:2:0
    Bit depth                   : 8 bits
    Scan type                   : Progressive
    Bits/(Pixel*Frame)          : 0.293
    Stream size                 : 6.94 GiB (95%)
    Title                       : Release for _R.G. HD-Films
    Writing library             : x264 core 144 r2525 40bb568
    Encoding settings           : cabac=1 / ref=5 / deblock=1:-2:-2 / analyse=0x3:0x113 / me=umh / subme=10 / psy=1 / psy_rd=1.05:0.03 / mixed_ref=1 / me_range=48 / chroma_me=1 / trellis=2 / 8x8dct=1 / cqm=0 / deadzone=21,11 / fast_pskip=1 / chroma_qp_offset=-5 / threads=12 / lookahead_threads=2 / sliced_threads=0 / nr=0 / decimate=1 / interlaced=0 / bluray_compat=0 / constrained_intra=0 / bframes=8 / b_pyramid=2 / b_adapt=2 / b_bias=0 / direct=1 / weightb=1 / open_gop=0 / weightp=2 / keyint=240 / keyint_min=23 / scenecut=40 / intra_refresh=0 / rc_lookahead=120 / rc=crf / mbtree=1 / crf=18.0 / qcomp=0.60 / qpmin=0 / qpmax=69 / qpstep=4 / vbv_maxrate=30000 / vbv_bufsize=38000 / crf_max=0.0 / nal_hrd=none / filler=0 / ip_ratio=1.40 / aq=1:1.00
    Language                    : Russian
    Default                     : Yes
    Forced                      : No
    Color primaries             : BT.709
    Transfer characteristics    : BT.709
    Matrix coefficients         : BT.709
    Color range                 : Limited
    DURATION                    : 01:32:08.315000000
    NUMBER_OF_FRAMES            : 132547
    NUMBER_OF_BYTES             : 7602084435
    _STATISTICS_WRITING_APP     : mkvmerge v7.4.0 ('Circles') 64bit built on Dec 12 2014 12:19:56
    _STATISTICS_WRITING_DATE_UT : 2015-01-21 09:13:31
    _STATISTICS_TAGS            : BPS DURATION NUMBER_OF_FRAMES NUMBER_OF_BYTES

    Audio
    ID                          : 2
    Format                      : AC-3
    Format/Info                 : Audio Coding 3
    Mode extension              : CM (complete main)
    Format settings, Endianness : Big
    Codec ID                    : A_AC3
    Duration                    : 1h 32mn
    Bit rate mode               : Constant
    Bit rate                    : 384 Kbps
    Channel(s)                  : 6 channels
    Channel positions           : Front: L C R, Side: L R, LFE
    Sampling rate               : 48.0 KHz
    Bit depth                   : 16 bits
    Compression mode            : Lossy
    Stream size                 : 253 MiB (3%)
    Title                       : Дубляж [iTunes Russia]
    Language                    : Russian
    Default                     : Yes
    Forced                      : Yes

    Menu
    00:00:00.000                : en:00:00:00.000
    00:04:07.289                : en:00:04:07.289
    00:07:20.565                : en:00:07:20.565
    00:11:32.817                : en:00:11:32.817
    00:16:30.698                : en:00:16:30.698
    00:22:53.664                : en:00:22:53.664
    00:30:23.447                : en:00:30:23.447
    00:34:16.763                : en:00:34:16.763
    00:38:57.043                : en:00:38:57.043
    00:43:00.369                : en:00:43:00.369
    00:47:03.738                : en:00:47:03.738
    00:53:16.735                : en:00:53:16.735
    00:57:39.831                : en:00:57:39.831
    01:00:47.310                : en:01:00:47.310
    01:04:30.033                : en:01:04:30.033
    01:09:12.190                : en:01:09:12.190
    01:12:47.613                : en:01:12:47.613
    01:17:11.877                : en:01:17:11.877
    01:21:52.658                : en:01:21:52.658
    01:25:02.556                : en:01:25:02.556

    Скриншоты:

    Релиз подготовлен специально для Piratbit.net. by Ворон
    pb.wtf



  • Скачать Дракула через торрент http://pic.kartinco.top/images/6/ordi9.jpg Скачать фильм Дракула через торрент бесплантно в хорошем качестве Описание:Влад Дракула был величайшим правителем, доблестным воином и страстным мужчиной. Но судьба свела его с врагом, коварство которого ... 10 10 11
    Торрент: Зарегистрирован [2015-01-21 09:30] · скачан: 303 раз
    Статус: √ проверено
    Размер: 7.33 GB
    Как cкачать? Как скачать Дракула через торрент | qTorrent

    28-11-2019 20:33  

    Отключить всю рекламу на сайте

      Дорогой пользователь! Огромная просьба, поблагодарите релизера, оцените раздачу и оставьте свои комментарий, если Вы скачали Дракула через торрент бесплатно! Внесите свою лепту в развитие PiratBit!
      Комментировать посты могут только пользователи прошедшие не сложную регистрацию
      Показать сообщения:    

      Дракула через торрент
      Скачать бесплатно Дракула
      Дракула скачать торрент
      Дракула смотреть онлайн
      Cкачать фильм Дракула бесплатно
      Дракула скачать торрент в хорошем качестве
      Дракула смотреть онлайн бесплатно в хорошем качестве


      Вы не можете начинать темы
      Вы не можете отвечать на сообщения
      Вы не можете редактировать свои сообщения
      Вы не можете удалять свои сообщения
      Вы не можете голосовать в опросах
      Вы не можете прикреплять файлы к сообщениям
      Вы можете скачивать файлы