Всегда рабочее зеркало без VPN и Proxy просто перед .vidak.icu напиши любое слово или цифру, Пример http://ml43.vidak.icu

MVO

2 сезон

1 сезон

1

1 сезон

iTunes

2 сезон

13

1 сезон

Deluxe

pack

Рекомендуем

Пиратка

30

ВАЖНО

RePack

MK11

RePack

jed

RePack

fifa19

RePack

RDR2

RePack

NEED FOR SPEED™ PAYBACK

Кинопоиск HD

6 сезон

 Острые козырьки 6 сезон

Все сериалы

все сериалы на PB.wtf

RePack

FAR CRY 5

Anonymous, нам критически не хватает 5601 руб. на оплату серверов и переферии за Апрель, помоги нам пожалуйста, вся надежда только на тебя. В благодарность мы отключим тебе всю рекламу на сайте!

×
  
Magnet ссылка

Занесло / Redirected (Эмилис Веливис ) [2014, боевик, триллер, комедия, BDRip 720p, MVO+AVO] pb.wtf

Занесло через торрент pb.wtf

Размер: 9.22 GB | Добавлен: 7 лет 4 мес. назад | Торрент скачан:382 раза
Смотреть онлайн Занесло | Скачать    Ребята, помогите собрать деньги на оплату серверов!!!

21-01-2015 09:54 Занесло Скачать торрент  


Занесло / Redirected


Год выпуска:2014
Страна: Литва, Великобритания
Жанр:боевик, триллер, комедия, криминал
Продолжительность:01:39:08
Перевод:Любительский многоголосый [Студия "Paradox"]+
Авторский (одноголосый) [Матвеев Алексей (Doctor Joker)]

Субтитры: ,
Режиссер:Эмилис Веливис

  • В ролях:

    Винни Джонс (Golden Pole), Скот Уильямс (Michael), Гил Дарнелл (Johnny), Оливер Джексон (Tim), Энтони Страхан (Ben), Андрюс Жюраускас (Staska), Витаутас Шапранаускас (Algis), Артур Смольянинов (Doncius), Вита Сяусюнайте (Saule), Моника (Simona), Дэниэл-Джон Уильямс (Golden Pole's Hitman 'Barman'), Дэниэл Неме (Turk)
  • Описание:
    Картина повествует о необычайных приключениях в Литве четырёх англичан - Майкла, Джонни, Бена и Тима. После удачного налёта в Лондоне на нелегальное казино, «славная четвёрка» садится в самолет, летящий в Малайзию. Кажется, все идёт по плану. Но... Никто не мог предусмотреть проделок вулкана Эйяфьядлайёкюдля, извержение которого вынудило самолет с англичанами сесть в Вильнюсе. Мало того, помимо местных разборок и приключений на все части тела, друзьям приходится спасаться от жаждущего мести владельца ограбленного казино.

  • Мировая премьера:10 января 2014

    Качество: BDRip 720p
    Формат:MKV
    Видео кодек: AVC
    Аудио кодек:AC3, DTS
    Видео: AVC, 1280x536 (2.40:1), 10775 kbps, 23,976 fps, 0,655 bpp
    Аудио №1: русский / AC3 / 5.1 / 48 kHz / 384 kbps / 16 bit || [Студия "Paradox"]
    Аудио №2: русский / AC3 / 5.1 / 48 kHz / 384 kbps / 16 bit || (Doctor Joker)
    Аудио №3: английский / DTS / 5.1 / 48 kHz / 1510 kbps / 24 bit


    Код:

    General
    Unique ID                                : 204855763089960601168547600614140805768 (0x9A1DC8EB5FCB8708AD124BE41BE60288)
    Complete name                            : D:\Торенты\Zaneslo.2014.MVO.AVO.BDRip.720.mkv
    Format                                   : Matroska
    Format version                           : Version 2
    File size                                : 9.22 GiB
    Duration                                 : 1h 39mn
    Overall bit rate                         : 13.3 Mbps
    Encoded date                             : UTC 2015-01-21 03:08:29
    Writing application                      : mkvmerge v7.4.0 ('Circles') 64bit built on Dec 12 2014 12:19:56
    Writing library                          : libebml v1.3.0 + libmatroska v1.4.1

    Video
    ID                                       : 1
    Format                                   : AVC
    Format/Info                              : Advanced Video Codec
    Format profile                           : High@L4.1
    Format settings, CABAC                   : Yes
    Format settings, ReFrames                : 4 frames
    Codec ID                                 : V_MPEG4/ISO/AVC
    Duration                                 : 1h 39mn
    Bit rate                                 : 10.8 Mbps
    Width                                    : 1 280 pixels
    Height                                   : 536 pixels
    Display aspect ratio                     : 2.40:1
    Frame rate                               : 23.976 fps
    Color space                              : YUV
    Chroma subsampling                       : 4:2:0
    Bit depth                                : 8 bits
    Scan type                                : Progressive
    Bits/(Pixel*Frame)                       : 0.655
    Stream size                              : 7.46 GiB (81%)
    Writing library                          : x264 core 144 r2525 40bb568
    Encoding settings                        : cabac=1 / ref=1 / deblock=1:0:0 / analyse=0x3:0x113 / me=dia / subme=2 / psy=1 / psy_rd=1.00:0.00 / mixed_ref=0 / me_range=16 / chroma_me=1 / trellis=0 / 8x8dct=1 / cqm=0 / deadzone=21,11 / fast_pskip=1 / chroma_qp_offset=-2 / threads=12 / lookahead_threads=4 / sliced_threads=0 / nr=0 / decimate=1 / interlaced=0 / bluray_compat=0 / constrained_intra=0 / bframes=3 / b_pyramid=2 / b_adapt=1 / b_bias=0 / direct=1 / weightb=1 / open_gop=0 / weightp=1 / keyint=240 / keyint_min=23 / scenecut=40 / intra_refresh=0 / rc=cqp / mbtree=0 / qp=17 / ip_ratio=1.40 / pb_ratio=1.30 / aq=0
    Language                                 : English
    Default                                  : Yes
    Forced                                   : No

    Audio #1
    ID                                       : 2
    Format                                   : AC-3
    Format/Info                              : Audio Coding 3
    Mode extension                           : CM (complete main)
    Codec ID                                 : A_AC3
    Duration                                 : 1h 39mn
    Bit rate mode                            : Constant
    Bit rate                                 : 384 Kbps
    Channel(s)                               : 6 channels
    Channel positions                        : Front: L C R, Side: L R, LFE
    Sampling rate                            : 48.0 KHz
    Bit depth                                : 16 bits
    Compression mode                         : Lossy
    Stream size                              : 272 MiB (3%)
    Title                                    : PARADOX
    Language                                 : Russian
    Default                                  : Yes
    Forced                                   : No

    Audio #2
    ID                                       : 3
    Format                                   : AC-3
    Format/Info                              : Audio Coding 3
    Mode extension                           : CM (complete main)
    Codec ID                                 : A_AC3
    Duration                                 : 1h 39mn
    Bit rate mode                            : Constant
    Bit rate                                 : 384 Kbps
    Channel(s)                               : 6 channels
    Channel positions                        : Front: L C R, Side: L R, LFE
    Sampling rate                            : 48.0 KHz
    Bit depth                                : 16 bits
    Compression mode                         : Lossy
    Stream size                              : 272 MiB (3%)
    Title                                    : matveev
    Language                                 : Russian
    Default                                  : No
    Forced                                   : No

    Audio #3
    ID                                       : 4
    Format                                   : DTS
    Format/Info                              : Digital Theater Systems
    Codec ID                                 : A_DTS
    Duration                                 : 1h 39mn
    Bit rate mode                            : Constant
    Bit rate                                 : 1 510 Kbps
    Channel(s)                               : 6 channels
    Channel positions                        : Front: L C R, Side: L R, LFE
    Sampling rate                            : 48.0 KHz
    Bit depth                                : 24 bits
    Compression mode                         : Lossy
    Stream size                              : 1.05 GiB (11%)
    Language                                 : English
    Default                                  : No
    Forced                                   : No

    Text
    ID                                       : 5
    Format                                   : PGS
    Muxing mode                              : zlib
    Codec ID                                 : S_HDMV/PGS
    Codec ID/Info                            : The same subtitle format used on BDs/HD-DVDs
    Default                                  : No
    Forced                                   : No

    Скриншоты:

    Каталог Новинок (Фильмы-трейлеры, Игры, Сериалы, Мультфильмы)

    © Оформление by Ворон
    pb.wtf



  • Скачать Занесло через торрент https://pic1.kartinco.top/images/61/ordi9.jpg Скачать, смотреть онлайн Занесло бесплантно в хорошем качестве Описание:Картина повествует о необычайных приключениях в Литве четырёх англичан - Майкла, Джонни, Бена и Тима. После удачного налёта в ... 10 10 10
    Info! Золотая раздача, скачанное не засчитывается.
    Торрент: Зарегистрирован [2015-01-21 09:54] · скачан: 382 раз
    Статус: √ проверено
    Размер: 9.22 GB
    Как cкачать? Как скачать Занесло через торрент | UTorrent

    % Раздел Тема Автор DL S | L
    T Фильмы 2014 [DVDrip, WEB-DLRip, HDrip] [ 1.37 GB ] Занесло / Redirected [2014 WEB-DLRip Любительский многоголосый [Студия "Paradox"] кэп Скачать
    2 | 0
    Фильмы с украинским озвучиванием [ 1.45 GB ] Занесло / Redirected [2014 BDRip] 2x[Ukr] killermax2013 Скачать
    1 | 0
    Фильмы [HD 720p, 1080p] (Хороший звук DUB, MVO) [ 6.96 GB ] Занесло / Redirected [2014 BDRip 720p] 2xAVO MVO _denis_100 Скачать
    1 | 0
    Фильмы (Blu-ray, BD-Remux, HDDVD) [ 25.63 GB ] Занесло / Redirected [2014 Blu-ray Remux MVO+AVO] Ворон Скачать
    1 | 0
    T Фильмы с авторской озвучкой [ 3 GB ] Занесло / Redirected [2014 WEBRip 720p Авторский Ворон Скачать
    1 | 0
    Фильмы с авторской озвучкой [ 1.46 GB ] Занесло / Redirected [2014 WEB-DLRip Авторский Ворон Скачать
    1 | 0
    T Фильмы 2014 (Звук TS, Cam, VO, DVO) [ 947 MB ] Занесло / Redirected [2014 WebRip Любительский одноголосый][RAIM] Ворон Скачать
    1 | 0

    28-11-2019 20:33  

    Отключить всю рекламу на сайте

      Дорогой пользователь! Огромная просьба, поблагодарите релизера, оцените раздачу и оставьте свои комментарий, если Вы скачали Занесло через торрент бесплатно!
      Комментировать посты могут только пользователи прошедшие не сложную регистрацию
      Показать сообщения:    

      Занесло через торрент
      Скачать бесплатно Занесло
      Занесло скачать торрент
      Занесло смотреть онлайн
      Cкачать фильм Занесло бесплатно
      Занесло скачать торрент в хорошем качестве
      Занесло смотреть онлайн бесплатно в хорошем качестве


      Вы не можете начинать темы
      Вы не можете отвечать на сообщения
      Вы не можете редактировать свои сообщения
      Вы не можете удалять свои сообщения
      Вы не можете голосовать в опросах
      Вы не можете прикреплять файлы к сообщениям
      Вы можете скачивать файлы