2 сезон

iTunes

MVO

1

2 сезон

iTunes

iTunes

1 сезон

RePack

30

Ultimate

ВАЖНО

ИГРА 18+

pack

RePack

MK11
pack

Легкие деньги

RePack

jed

RePack

fifa19

RePack

RDR2

RePack

NEED FOR SPEED™ PAYBACK

4 сезон

9 сезон

Бесстыжие 9 сезон

Все сериалы

все сериалы на PB.wtf

RePack

FAR CRY 5

Anonymous, доброй ночи, мы не успеваем собрать деньги на оплату серверов за декабрь и январь, помогите нам пожалуйста в это трудное время. В качестве благодарности мы отключим Вам всю рекламу на сайте (укажите свой ник в строку Ваше имя)!

×
  
Magnet ссылка

Секретный эксперимент / Banshee Chapter (Блэр Эриксон ) [2013, ужасы, триллер, HDRip-AVC] DUB Лицензия pb.wtf

Секретный эксперимент через торрент pb.wtf

Размер: 1.54 GB | Добавлен: 6 лет назад | Торрент скачан:971 раз
Скачать  

21-01-2015 11:43 Секретный эксперимент Скачать торрент  


Секретный эксперимент / Banshee Chapter
«Расширь своё сознание»

Год выпуска:2013
Страна: Германия, США
Жанр:ужасы, триллер
Продолжительность:01:27:08
Перевод:Дубляж - [Лицензия]
Режиссер:Блэр Эриксон

  • В ролях:

    Катя Винтер (Anne Roland), Майкл МакМиллиан (James Hirsch), Тед Левайн (Thomas Blackburn), Кори Мооса (Patient 11), Моник Канделария (Patient 14), Дженни Гэбриэлль (Callie), Вивиан Несбитт (Olivia Kmiec), Чед Брамметт (Dr. Kessel), Уильям Стерчи (Henry Cale), Алекс Джианопулос (Renny), Дж.Д. Гарфилд (Elderly Doctor), Кевин Уиггинс (Black Rock County Sheriff)
  • Описание:
    Молодая журналистка Энн расследует случай бесследного исчезновения своего друга, с которым вместе они учились в университете. В его доме Энн находит запись, которую приятель сделал на камеру, и в которой рассказывает, что занимался изучением одного из секретных правительственных экспериментов по разработке сыворотки, способной изменять сознание людей. Сыворотка изготавливалась из мозга умерших, результаты экспериментов были засекречены, программа свернута. Ужасная правда заключается в том, что пропавший журналист в ходе своего расследования получил доступ к документам и химической формуле сыворотки и решил принять ее сам, после чего исчез. Энн пытается разобраться в сути правительственного эксперимента и найти его участников, чтобы разобраться в том, что же произошло с ее другом. В ходе ее расследования всплывает правда настолько страшная, что лучше бы Энн было ее не знать.

  • Мировая премьера:22 августа 2013

    Качество: HDRip-AVC
    Формат:MKV
    Видео кодек: AVC
    Аудио кодек:AC3
    Видео: AVC, 1024x576 (16:9), 2150 kbps, 23,976 fps, 0,152 bpp
    Аудио: AC3 / 5.1 / 48 kHz / 384 kbps / 16 bit


    Код:

    General
    Unique ID                                : 178699178712286164755295214971628725043 (0x867035BE197FD53E93CA2C3AC4BAA333)
    Complete name                            : D:\Торенты\Secretn1y.exper1ment.2013.AVC.HDRip.by_Денис.mkv
    Format                                   : Matroska
    Format version                           : Version 2
    File size                                : 1.54 GiB
    Duration                                 : 1h 27mn
    Overall bit rate                         : 2 535 Kbps
    Encoded date                             : UTC 2015-01-21 10:01:03
    Writing application                      : mkvmerge v6.1.0 ('Old Devil') built on Mar  4 2013 09:10:42
    Writing library                          : libebml v1.3.0 + libmatroska v1.4.0

    Video
    ID                                       : 1
    Format                                   : AVC
    Format/Info                              : Advanced Video Codec
    Format profile                           : High@L4.1
    Format settings, CABAC                   : Yes
    Format settings, ReFrames                : 6 frames
    Codec ID                                 : V_MPEG4/ISO/AVC
    Duration                                 : 1h 27mn
    Bit rate                                 : 2 150 Kbps
    Width                                    : 1 024 pixels
    Height                                   : 576 pixels
    Display aspect ratio                     : 16:9
    Frame rate                               : 23.976 fps
    Color space                              : YUV
    Chroma subsampling                       : 4:2:0
    Bit depth                                : 8 bits
    Scan type                                : Progressive
    Bits/(Pixel*Frame)                       : 0.152
    Stream size                              : 1.28 GiB (83%)
    Writing library                          : x264 core 130 r2273 b3065e6
    Encoding settings                        : cabac=1 / ref=6 / deblock=1:1:-1 / analyse=0x3:0x113 / me=umh / subme=8 / psy=0 / mixed_ref=1 / me_range=32 / chroma_me=1 / trellis=2 / 8x8dct=1 / cqm=0 / deadzone=21,11 / fast_pskip=1 / chroma_qp_offset=0 / threads=6 / lookahead_threads=2 / sliced_threads=0 / nr=0 / decimate=1 / interlaced=0 / bluray_compat=0 / constrained_intra=0 / bframes=9 / b_pyramid=2 / b_adapt=1 / b_bias=0 / direct=3 / weightb=1 / open_gop=0 / weightp=2 / keyint=250 / keyint_min=23 / scenecut=40 / intra_refresh=0 / rc_lookahead=40 / rc=2pass / mbtree=1 / bitrate=2150 / ratetol=1.0 / qcomp=0.60 / qpmin=0 / qpmax=69 / qpstep=4 / cplxblur=20.0 / qblur=0.5 / ip_ratio=1.40 / aq=1:1.00
    Default                                  : Yes
    Forced                                   : No

    Audio
    ID                                       : 2
    Format                                   : AC-3
    Format/Info                              : Audio Coding 3
    Mode extension                           : CM (complete main)
    Codec ID                                 : A_AC3
    Duration                                 : 1h 27mn
    Bit rate mode                            : Constant
    Bit rate                                 : 384 Kbps
    Channel(s)                               : 6 channels
    Channel positions                        : Front: L C R, Side: L R, LFE
    Sampling rate                            : 48.0 KHz
    Bit depth                                : 16 bits
    Compression mode                         : Lossy
    Stream size                              : 239 MiB (15%)
    Default                                  : Yes
    Forced                                   : No

    Скриншоты:

    Каталог Новинок (Фильмы-трейлеры, Игры, Сериалы, Мультфильмы)

    © Оформление by Ворон
    pb.wtf



  • Скачать Секретный эксперимент через торрент https://pic.kartinco.top/images/6/ordi9.jpg Скачать фильм Секретный эксперимент через торрент бесплантно в хорошем качестве Описание:Молодая журналистка Энн расследует случай бесследного исчезновения своего друга, с которым вместе они учились в университете. В ... 8.9 10 19
    Info! Золотая раздача, скачанное не засчитывается.
    Торрент: Зарегистрирован [2015-01-21 11:43] · скачан: 971 раз
    Статус: √ проверено
    Размер: 1.54 GB
    Как cкачать? Как скачать Секретный эксперимент через торрент | UTorrent

    28-11-2019 20:33  

    Отключить всю рекламу на сайте

    21-01-2015 15:56 Секретный эксперимент Скачать торрент  

    как хоть фильм отпишитесь кто смотрел!pb.wtf



    22-01-2015 17:35 Секретный эксперимент Скачать торрент  

    фильм весьма неплох, хотя в середине уже начинаешь понимать всю суть
    держит в напряжении, но концовка....концовка как обычно с закосомpb.wtf



      Дорогой пользователь! Огромная просьба, поблагодарите релизера, оцените раздачу и оставьте свои комментарий, если Вы скачали Секретный эксперимент через торрент бесплатно! Внесите свою лепту в развитие PiratBit!
      Комментировать посты могут только пользователи прошедшие не сложную регистрацию
      Показать сообщения:    

      Секретный эксперимент через торрент
      Скачать бесплатно Секретный эксперимент
      Секретный эксперимент скачать торрент
      Секретный эксперимент смотреть онлайн
      Cкачать фильм Секретный эксперимент бесплатно
      Секретный эксперимент скачать торрент в хорошем качестве
      Секретный эксперимент смотреть онлайн бесплатно в хорошем качестве


      Вы не можете начинать темы
      Вы не можете отвечать на сообщения
      Вы не можете редактировать свои сообщения
      Вы не можете удалять свои сообщения
      Вы не можете голосовать в опросах
      Вы не можете прикреплять файлы к сообщениям
      Вы можете скачивать файлы