Ссылка на приватное зеркало нашего сайта всего за 1$. Внимание количество ограничено!!!

2 сезон

iTunes

1 сезон

1

iTunes

iTunes

iTunes

1 сезон

RePack

30

ИГРА 18+

pack

ВАЖНО

!!Акция!!

Alien_RageХит недели

RePack

MK11
pack

Забери бонус

RePack

jed

!!Акция!!

Alien_Rage

RePack

fifa19

RePack

Assassins Creed: Odyssey

RePack

NEED FOR SPEED™ PAYBACK

4 сезон

9 сезон

Бесстыжие 9 сезон

Все сериалы

все сериалы на PB.wtf

RePack

FAR CRY 5
  

Полночный жеребец / Midnight Stallion (Уильям Дир ) [2013, Драма,Приключения, BDRip 720p, Любительский (одноголосый) [Pashaup] pb.wtf

Полночный жеребец через торрент pb.wtf

Размер: 4.52 GB | Добавлен: 5 лет 8 мес. назад | Торрент скачан:42 раза
Скачать  

21-01-2015 12:21 Полночный жеребец Скачать торрент  


Полночный жеребец / Midnight Stallion


Год выпуска:2013
Страна: США, Канада
Жанр:Драма,Приключения
Продолжительность:01:30:13
Перевод:Любительский (одноголосый) [Pashaup]
Субтитры: русские (mig_88),
Режиссер:Уильям Дир

  • В ролях:

    Крис Кристофферсон (Jack Shepard), Джоделль Ферланд (Megan Shephard), Чела Хорсдэл (Rita Shepard), Мэтт Мазур (Ross Chaney), Дэвид Орт (Brad Chaney), Эйприл Телек (Belinda Chaney), Шон Дивайн (Donald Dupree), Карлос Джо Костас (AJ Owens), Кристоф Готье (Pastor Michaels), Грэхэм Ньюмарк (Store Employee), Марк Бёрджесс (Mort (Realtor)), Пол Джарретт (Melvin)
  • Описание:
    Ферма семьи Шепард находится на грани разорения. Однажды во время прогулки Меган и ее отец обнаруживают дикого жеребца. Они надеются обучить великолепного скакуна и выиграть на нем скачки, так у фермы появится шанс спастись от банкротства. Для начала отец и дочь знакомятся с жеребцом, затем им удается поймать его. Но удастся ли им обуздать дикого жеребца и не просто обуздать, а выиграть на нем скачки?

  • Мировая премьера:4 мая 2013

    Качество: BDRip 720p
    Формат:MKV
    Видео кодек: AVC
    Аудио кодек:AC3, DTS
    Видео: AVC, 1280x720 (16:9), 5418 kbps, 23,976 fps, 0,245 bpp
    Аудио №1: русский / AC3 / 2.0 / 48 kHz / 256 kbps / 16 bit ||
    Аудио №2: английский / DTS / 5.1 / 48 kHz / 1510 kbps / 16 bit
    Навигация по главам: есть


    Код:

    General
    Unique ID                                : 226680776847843299974713800570682426579 (0xAA89212D205331D89B0F8C3EF65744D3)
    Complete name                            : D:\Торенты\Midnight.Stallion.2013.Blu.Ray.720p..mkv
    Format                                   : Matroska
    Format version                           : Version 4 / Version 2
    File size                                : 4.52 GiB
    Duration                                 : 1h 30mn
    Overall bit rate                         : 7 177 Kbps
    Movie name                               : Release Group CINEMANIA
    Encoded date                             : UTC 2014-03-12 15:48:23
    Writing application                      : mkvmerge v6.8.0 ('Theme for Great Cities') 64bit built on Mar  2 2014 21:34:26
    Writing library                          : libebml v1.3.0 + libmatroska v1.4.1

    Video
    ID                                       : 1
    Format                                   : AVC
    Format/Info                              : Advanced Video Codec
    Format profile                           : High@L4.1
    Format settings, CABAC                   : Yes
    Format settings, ReFrames                : 5 frames
    Codec ID                                 : V_MPEG4/ISO/AVC
    Duration                                 : 1h 30mn
    Bit rate                                 : 5 418 Kbps
    Width                                    : 1 280 pixels
    Height                                   : 720 pixels
    Display aspect ratio                     : 16:9
    Frame rate                               : 23.976 fps
    Color space                              : YUV
    Chroma subsampling                       : 4:2:0
    Bit depth                                : 8 bits
    Scan type                                : Progressive
    Bits/(Pixel*Frame)                       : 0.245
    Stream size                              : 3.32 GiB (73%)
    Title                                    : Release Group CINEMANIA
    Writing library                          : x264 core 140 r2377 1ca7bb9
    Encoding settings                        : cabac=1 / ref=5 / deblock=1:0:0 / analyse=0x3:0x133 / me=umh / subme=7 / psy=1 / psy_rd=1.00:0.00 / mixed_ref=1 / me_range=16 / chroma_me=1 / trellis=1 / 8x8dct=1 / cqm=0 / deadzone=21,11 / fast_pskip=0 / chroma_qp_offset=-2 / threads=18 / lookahead_threads=3 / sliced_threads=0 / nr=0 / decimate=1 / interlaced=0 / bluray_compat=0 / constrained_intra=0 / bframes=3 / b_pyramid=2 / b_adapt=1 / b_bias=0 / direct=1 / weightb=1 / open_gop=0 / weightp=2 / keyint=240 / keyint_min=23 / scenecut=40 / intra_refresh=0 / rc_lookahead=40 / rc=2pass / mbtree=1 / bitrate=5418 / ratetol=1.0 / qcomp=0.60 / qpmin=10 / qpmax=69 / qpstep=4 / cplxblur=20.0 / qblur=0.5 / ip_ratio=1.40 / aq=1:1.00
    Language                                 : English
    Default                                  : Yes
    Forced                                   : No

    Audio #1
    ID                                       : 2
    Format                                   : AC-3
    Format/Info                              : Audio Coding 3
    Mode extension                           : CM (complete main)
    Codec ID                                 : A_AC3
    Duration                                 : 1h 30mn
    Bit rate mode                            : Constant
    Bit rate                                 : 256 Kbps
    Channel(s)                               : 2 channels
    Channel positions                        : Front: L R
    Sampling rate                            : 48.0 KHz
    Bit depth                                : 16 bits
    Compression mode                         : Lossy
    Stream size                              : 165 MiB (4%)
    Title                                    : Pashaup
    Language                                 : Russian
    Default                                  : Yes
    Forced                                   : Yes

    Audio #2
    ID                                       : 3
    Format                                   : DTS
    Format/Info                              : Digital Theater Systems
    Codec ID                                 : A_DTS
    Duration                                 : 1h 30mn
    Bit rate mode                            : Constant
    Bit rate                                 : 1 510 Kbps
    Channel(s)                               : 6 channels
    Channel positions                        : Front: L C R, Side: L R, LFE
    Sampling rate                            : 48.0 KHz
    Bit depth                                : 16 bits
    Compression mode                         : Lossy
    Stream size                              : 974 MiB (21%)
    Language                                 : English
    Default                                  : No
    Forced                                   : No

    Text
    ID                                       : 4
    Format                                   : UTF-8
    Codec ID                                 : S_TEXT/UTF8
    Codec ID/Info                            : UTF-8 Plain Text
    Title                                    : mig_88
    Language                                 : Russian
    Default                                  : No
    Forced                                   : No

    Menu
    00:00:00.000                             : en:00:00:00.000
    00:06:01.235                             : en:00:06:01.235
    00:14:58.397                             : en:00:14:58.397
    00:22:37.105                             : en:00:22:37.105
    00:31:00.900                             : en:00:31:00.900
    00:37:04.096                             : en:00:37:04.096
    00:43:26.604                             : en:00:43:26.604
    00:50:05.669                             : en:00:50:05.669
    00:58:56.366                             : en:00:58:56.366
    01:04:45.256                             : en:01:04:45.256
    01:12:49.156                             : en:01:12:49.156
    01:24:49.125                             : en:01:24:49.125

    Скриншоты:

    Каталог Новинок (Фильмы-трейлеры, Игры, Сериалы, Мультфильмы)

    © Оформление by Ворон
    pb.wtf



  • Скачать Полночный жеребец через торрент http://pic.kartinco.top/images/6/ordi9.jpg Скачать фильм Полночный жеребец через торрент бесплантно в хорошем качестве Описание:Ферма семьи Шепард находится на грани разорения. Однажды во время прогулки Меган и ее отец обнаруживают дикого жеребца. Они ... 10 10 4
    Торрент: Зарегистрирован [2015-01-21 12:21] · скачан: 42 раз
    Статус: √ проверено
    Размер: 4.52 GB
    Как cкачать? Как скачать Полночный жеребец через торрент | qTorrent

    28-11-2019 20:33  

    Отключить всю рекламу на сайте

      Дорогой пользователь! Огромная просьба, поблагодарите релизера, оцените раздачу и оставьте свои комментарий, если Вы скачали Полночный жеребец через торрент бесплатно! Внесите свою лепту в развитие PiratBit!
      Комментировать посты могут только пользователи прошедшие не сложную регистрацию
      Показать сообщения:    

      Полночный жеребец через торрент
      Скачать бесплатно Полночный жеребец
      Полночный жеребец скачать торрент
      Полночный жеребец смотреть онлайн
      Cкачать фильм Полночный жеребец бесплатно
      Полночный жеребец скачать торрент в хорошем качестве
      Полночный жеребец смотреть онлайн бесплатно в хорошем качестве


      Вы не можете начинать темы
      Вы не можете отвечать на сообщения
      Вы не можете редактировать свои сообщения
      Вы не можете удалять свои сообщения
      Вы не можете голосовать в опросах
      Вы не можете прикреплять файлы к сообщениям
      Вы можете скачивать файлы