2 сезон

iTunes

MVO

1

2 сезон

iTunes

iTunes

1 сезон

RePack

30

Ultimate

ВАЖНО

ИГРА 18+

pack

RePack

MK11
pack

Легкие деньги

RePack

jed

RePack

fifa19

RePack

RDR2

RePack

NEED FOR SPEED™ PAYBACK

4 сезон

9 сезон

Бесстыжие 9 сезон

Все сериалы

все сериалы на PB.wtf

RePack

FAR CRY 5

Anonymous, доброе утро, мы не успеваем собрать деньги на оплату серверов за декабрь и январь, помогите нам пожалуйста в это трудное время. В качестве благодарности мы отключим Вам всю рекламу на сайте (укажите свой ник в строку Ваше имя)!

×
  
Magnet ссылка

Город грехов 2: Женщина, ради которой стоит убивать / Sin City: A Dame to Kill For (Роберт Родригес, Фрэнк Миллер) [2014 г., Триллер, Криминал, BDRip 1080p, Дубляж, Лицензия] Анаглиф (Дюбуа) pb.wtf

Город грехов 2: Женщина, ради которой стоит убивать через торрент pb.wtf

Размер: 6.63 GB | Добавлен: 6 лет назад | Торрент скачан:51 раз
Скачать  

21-01-2015 16:12 Город грехов 2: Женщина, ради которой стоит убивать Скачать торрент  

Город грехов 2: Женщина ради которой стоит убивать / Sin City: A Dame to Kill For
Год выпуска: 2014
Страна: США, Россия
Жанр: Триллер, Криминал
Продолжительность: 01:42:08
Перевод: Дубляж, Лицензия

Режиссер: Роберт Родригес, Фрэнк Миллер
Продюссер: Роберт Родригес, Аарон Кауфман, Стивен Л’Орё
Сценарий: Фрэнк Миллер

Премьера в мире: 19 августа 2014



В ролях: Ева Грин, Микки Рурк, Джош Бролин, Джессика Альба, Джозеф Гордон-Левитт, Розарио Доусон, Пауэрс Бут, Деннис Хейсбёрт, Джейми Чунг, Брюс Уиллис

Описание: В темных переулках Города Грехов Дуайт планирует жестоко отомстить женщине по имени Ава Лорд, которая его предала, в то время как Нэнси пытается смириться со смертью детектива Хартигана.

Доп. информация: Формат 3D: Анаглиф (Дюбуа)



Качество: BDRip 1080p
Формат: MKV
Видео кодек: H.264
Аудио кодек: AC3
Видео: x264, 1920 x 1080 (16:9), 8012 kbps, 23,976 fps, ( 0.161 bpp)
Аудио#1: Русский / AC3 / 48 KHz / 5.1 ch / 640 Kbps ( Дубляж )
Аудио#2: Английский / AC3 / 48 KHz / 5.1 ch / 640 Kbps ( Original - BD 3D )



скриншот   скриншот   скриншот   скриншот   скриншот   скриншот  
Общее
Уникальный идентификатор : 194909757235155947745682331769946349645 (0x92A240F8768236F1ADB7C3048D81A04D)
Полное имя : D:\ Sin.City2(2014)3D(Anaglyph_Dubois).mkv
Формат : Matroska
Версия формата : Version 4 / Version 2
Размер файла : 6,63 Гбайт
Продолжительность : 1 ч. 42 м.
Общий поток : 9292 Кбит/сек
Название фильма : Город грехов 2: Женщина, ради которой стоит убивать / Sin City: A Dame to Kill For (2014) 3D (Anaglyph_Dubois)
Дата кодирования : UTC 2015-01-18 10:41:32
Программа кодирования : mkvmerge v6.2.0 ('Promised Land') built on Apr 28 2013 12:22:01
Библиотека кодирования : libebml v1.3.0 + libmatroska v1.4.0

Видео
Идентификатор : 1
Формат : AVC
Формат/Информация : Advanced Video Codec
Профиль формата : High@L4.1
MultiView_Count : 2
MultiView_Layout : Anaglyph (cyan/red)
Параметр CABAC формата : Да
Параметр ReFrames формата : 4 кадра
Идентификатор кодека : V_MPEG4/ISO/AVC
Продолжительность : 1 ч. 42 м.
Битрейт : 8012 Кбит/сек
Ширина : 1920 пикселей
Высота : 1080 пикселей
Соотношение сторон : 16:9
Режим частоты кадров : Постоянный
Частота кадров : 23,976 кадра/сек
Цветовое пространство : YUV
Субдискретизация насыщенности : 4:2:0
Битовая глубина : 8 бит
Тип развёртки : Прогрессивная
Бит/(Пиксели*Кадры) : 0.161
Размер потока : 5,58 Гбайт (84%)
Заголовок : Sin City: A Dame to Kill For (2014) 3D (Anaglyph_Dubois).mkv
Библиотека кодирования : x264 core 130 r2273 b3065e6
Настройки программы : cabac=1 / ref=4 / deblock=1:-3:-3 / analyse=0x3:0x113 / me=umh / subme=9 / psy=1 / psy_rd=1.00:0.15 / mixed_ref=1 / me_range=32 / chroma_me=1 / trellis=2 / 8x8dct=1 / cqm=0 / deadzone=21,11 / fast_pskip=1 / chroma_qp_offset=-3 / threads=3 / lookahead_threads=1 / sliced_threads=0 / nr=0 / decimate=1 / interlaced=0 / bluray_compat=0 / constrained_intra=0 / bframes=4 / b_pyramid=2 / b_adapt=2 / b_bias=0 / direct=3 / weightb=1 / open_gop=0 / weightp=2 / keyint=250 / keyint_min=23 / scenecut=40 / intra_refresh=0 / rc_lookahead=50 / rc=2pass / mbtree=1 / bitrate=8012 / ratetol=1.0 / qcomp=0.60 / qpmin=0 / qpmax=69 / qpstep=4 / cplxblur=20.0 / qblur=0.5 / ip_ratio=1.40 / aq=1:1.00
Язык : English
Default : Да
Forced : Нет

Аудио #1
Идентификатор : 2
Формат : AC-3
Формат/Информация : Audio Coding 3
Расширение режима : CM (complete main)
Параметр Endianness формата : Big
Идентификатор кодека : A_AC3
Продолжительность : 1 ч. 42 м.
Вид битрейта : Постоянный
Битрейт : 640 Кбит/сек
Каналы : 6 каналов
Расположение каналов : Front: L C R, Side: L R, LFE
Частота : 48,0 КГц
Битовая глубина : 16 бит
Метод сжатия : С потерями
Размер потока : 468 Мбайт (7%)
Заголовок : Дубляж
Язык : Russian
Default : Да
Forced : Нет

Аудио #2
Идентификатор : 3
Формат : AC-3
Формат/Информация : Audio Coding 3
Расширение режима : CM (complete main)
Параметр Endianness формата : Big
Идентификатор кодека : A_AC3
Продолжительность : 1 ч. 42 м.
Вид битрейта : Постоянный
Битрейт : 640 Кбит/сек
Каналы : 6 каналов
Расположение каналов : Front: L C R, Side: L R, LFE
Частота : 48,0 КГц
Битовая глубина : 16 бит
Метод сжатия : С потерями
Размер потока : 468 Мбайт (7%)
Заголовок : Original - BD 3D
Язык : English
Default : Нет
Forced : Нет

Меню
00:00:00.000 : :1
00:07:04.966 : :2
00:14:23.571 : :3
00:20:40.114 : :4
00:26:18.494 : :5
00:31:26.885 : :6
00:38:13.666 : :7
00:45:24.639 : :8
00:50:49.630 : :9
00:57:46.588 : :10
01:07:05.980 : :11
01:12:30.805 : :12
01:16:48.437 : :13
01:23:19.828 : :14
01:28:59.084 : :15
01:35:22.967 : :16

pb.wtf



Скачать Город грехов 2: Женщина, ради которой стоит убивать через торрент http://pic.kartinco.top/images/8/bgn2i.jpg Скачать фильм Город грехов 2: Женщина, ради которой стоит убивать через торрент бесплантно в хорошем качестве Описание: В темных переулках Города Грехов Дуайт планирует жестоко отомстить женщине по имени Ава Лорд, которая его предала, в то время как ... 8.5 10 8
Торрент: Зарегистрирован [2015-01-21 16:12] · скачан: 51 раз
Статус: √ проверено
Размер: 6.63 GB
Как cкачать? Как скачать Город грехов 2: Женщина, ради которой стоит убивать через торрент | UTorrent

% Раздел Тема Автор DL S | L
3D Фильмы [ 7.52 GB ] Город грехов 2: Женщина ради которой стоит убивать 3Д / Sin City: A Dame to Kill For 3D [2014 BDRip 1080p] [Half OverUnder / Вертикальная анаморфная стереопара] DUB [] bober100 Скачать
1 | 0
3D Фильмы [ 11.36 GB ] Город грехов 2: Женщина ради которой стоит убивать / Sin City: A Dame to Kill For [2014 BDrip 1080p] OverUnder / Вертикальная стереопара serega768 Скачать
1 | 0
Фильмы 2014 [DVDrip, WEB-DLRip, HDrip] [ 1.46 GB ] Город грехов 2: Женщина ради которой стоит убивать / Sin City: A Dame to Kill For [2014 HDRip [лицезия] Ворон Скачать
1 | 0
Фильмы [HD 720p, 1080p] (Хороший звук DUB, MVO) [ 4.32 GB ] Город грехов 2: Женщина ради которой стоит убивать / Sin City: A Dame to Kill For [2014 BDRip 720p] DUB Ворон Скачать
1 | 0
Фильмы 2014 [DVDrip, WEB-DLRip, HDrip] [ 1.81 GB ] Город грехов 2: Женщина ради которой стоит убивать / Sin City: A Dame to Kill For [2014 Россия HDRip-AVC] - [] От R.G. PiratFilms White Smoke Скачать
1 | 0
Фильмы [HD 720p, 1080p] (Хороший звук DUB, MVO) [ 7.15 GB ] Город грехов 2: Женщина ради которой стоит убивать / Sin City: A Dame to Kill For [2014 BDRip 1080p Dub ] Seedtank Скачать
3 | 0
Фильмы (DVD фильмы) [ 5.48 GB ] Город грехов 2: Женщина ради которой стоит убивать / Sin City: A Dame to Kill For [2014 DVD9] R5 voovaz Скачать
1 | 0

28-11-2019 20:33  

Отключить всю рекламу на сайте

21-01-2015 18:46 Город грехов 2: Женщина, ради которой стоит убивать Скачать торрент  

Фильм смотреть можно?pb.wtf



    Дорогой пользователь! Огромная просьба, поблагодарите релизера, оцените раздачу и оставьте свои комментарий, если Вы скачали Город грехов 2: Женщина, ради которой стоит убивать через торрент бесплатно! Внесите свою лепту в развитие PiratBit!
    Комментировать посты могут только пользователи прошедшие не сложную регистрацию
    Показать сообщения:    

    Город грехов 2: Женщина, ради которой стоит убивать через торрент
    Скачать бесплатно Город грехов 2: Женщина, ради которой стоит убивать
    Город грехов 2: Женщина, ради которой стоит убивать скачать торрент
    Город грехов 2: Женщина, ради которой стоит убивать смотреть онлайн
    Cкачать фильм Город грехов 2: Женщина, ради которой стоит убивать бесплатно
    Город грехов 2: Женщина, ради которой стоит убивать скачать торрент в хорошем качестве
    Город грехов 2: Женщина, ради которой стоит убивать смотреть онлайн бесплатно в хорошем качестве


    Вы не можете начинать темы
    Вы не можете отвечать на сообщения
    Вы не можете редактировать свои сообщения
    Вы не можете удалять свои сообщения
    Вы не можете голосовать в опросах
    Вы не можете прикреплять файлы к сообщениям
    Вы можете скачивать файлы