Ссылка на приватное зеркало нашего сайта всего за 1$. Внимание количество ограничено!!!

2 сезон

iTunes

1 сезон

1

2 сезон

2 сезон

iTunes

1 сезон

RePack

30

Новинка

ВАЖНО

ИГРА 18+

pack

RePack

MK11
pack

Забери бонус

RePack

jed

!!Акция!!

Alien_Rage

RePack

fifa19

RePack

Assassins Creed: Odyssey

RePack

NEED FOR SPEED™ PAYBACK

4 сезон

9 сезон

Бесстыжие 9 сезон

Все сериалы

все сериалы на PB.wtf

RePack

FAR CRY 5
  

Добро пожаловать в рай / Порок / Viсе (Брайан А Миллер ) [2015, фантастика, боевик, триллер, WEB-DLRip, Любительский (двухголосый)[RAIM&GUGU] pb.wtf

Добро пожаловать в рай через торрент pb.wtf

Размер: 1.31 GB | Добавлен: 5 лет 10 мес. назад | Торрент скачан:2653 раза
Скачать  

20-01-2015 13:16 Добро пожаловать в рай Скачать торрент  


Добро пожаловать в рай / Порок / Viсе


Год выпуска:2015
Страна:США
Жанр:фантастика, боевик, триллер, приключения
Продолжительность: 01:36:21
Перевод:Любительский (двухголосый)[RAIM&GUGU]
Режиссер:Брайан А Миллер
В ролях:

Томас Джейн (Roy), Брюс Уиллис (Julian), Эмбир Чилдерс (Kelly), Брайан Гринберг (Evan), Джонатон Шек (Chris), Шарлотта Кирк (Melissa), Бретт Гранстафф (James), Райан О’Нан (Det. Matthews), David Gordon (Mitch), Колин Эглсфилд (Reiner), Cameron Brexler (Keith), Джесси Пруэтт (Officer Pullman)
  • Описание:
    Действие происходит в относительно недалеком будущем, когда для богачей создан специальный город-курорт, основные обитатели которых и обслуга - андроиды. Туристы за соответствующую цену могут осуществить здесь самые безумные свои фантазии, а андроиды, пострадавшие от рук людей, направляются на перезагрузку памяти. Но однажды случается сбой, и женщина-андроид обретает память о всех кошмарах, которым богатые извращенцы подвергали ее и остальных искусственных людей. И она решает отомстить...


    Качество: WEB-DLRip
    Формат:AVI
    Видео кодек: XviD
    Аудио кодек:AC3
    Видео: XviD, 720x304 (2.35:1), 1748 kbps, 23,976 fps, 0,319 bpp
    Аудио: AC3 / 2.0 / 48 kHz / 192 kbps / 16 bit

    Код:

    General
    Complete name                            : D:\Торенты\Viсе.2015.HDRip.XviD.avi
    Format                                   : AVI
    Format/Info                              : Audio Video Interleave
    File size                                : 1.31 GiB
    Duration                                 : 1h 36mn
    Overall bit rate                         : 1 950 Kbps
    Writing application                      : VirtualDubMod 1.5.10.2 (build 2542/release)
    Writing library                          : VirtualDubMod build 2542/release

    Video
    ID                                       : 0
    Format                                   : MPEG-4 Visual
    Format profile                           : Advanced Simple@L5
    Format settings, BVOP                    : 2
    Format settings, QPel                    : No
    Format settings, GMC                     : No warppoints
    Format settings, Matrix                  : Default (H.263)
    Muxing mode                              : Packed bitstream
    Codec ID                                 : XVID
    Codec ID/Hint                            : XviD
    Duration                                 : 1h 36mn
    Bit rate                                 : 1748 Kbps
    Width                                    : 720 pixels
    Height                                   : 304 pixels
    Display aspect ratio                     : 2.35:1
    Frame rate                               : 23.976 fps
    Color space                              : YUV
    Chroma subsampling                       : 4:2:0
    Bit depth                                : 8 bits
    Scan type                                : Progressive
    Compression mode                         : Lossy
    Bits/(Pixel*Frame)                       : 0.319
    Stream size                              : 1.13 GiB (86%)
    Writing library                          : XviD 64

    Audio
    ID                                       : 1
    Format                                   : AC-3
    Format/Info                              : Audio Coding 3
    Mode extension                           : CM (complete main)
    Codec ID                                 : 2000
    Duration                                 : 1h 36mn
    Bit rate mode                            : Constant
    Bit rate                                 : 192 Kbps
    Channel(s)                               : 2 channels
    Channel positions                        : Front: L R
    Sampling rate                            : 48.0 KHz
    Bit depth                                : 16 bits
    Compression mode                         : Lossy
    Stream size                              : 132 MiB (10%)
    Alignment                                : Split accross interleaves


    Скриншоты:

    Каталог Новинок (Фильмы-трейлеры, Игры, Сериалы, Мультфильмы)

    © Оформление by Ворон
    pb.wtf



  • Скачать Добро пожаловать в рай через торрент http://pic.kartinco.top/images/6/ordi9.jpg Скачать фильм Добро пожаловать в рай через торрент бесплантно в хорошем качестве Описание:Действие происходит в относительно недалеком будущем, когда для богачей создан специальный город-курорт, основные обитатели ... 9.3 10 65
    Info! Золотая раздача, скачанное не засчитывается.
    Торрент: Зарегистрирован [2015-01-21 19:53] · скачан: 2 653 раз
    Статус: √ проверено
    Размер: 1.31 GB
    Как cкачать? Как скачать Добро пожаловать в рай через торрент | qTorrent

    28-11-2019 20:33  

    Отключить всю рекламу на сайте

    20-01-2015 13:39 Добро пожаловать в рай Скачать торрент  

    райм озвучивает нормально,но вот у этой гугу или жужу голосок это тихий ужас pb.wtf



    21-01-2015 09:25 Добро пожаловать в рай Скачать торрент  

    хороший фильмpb.wtf



    21-01-2015 21:35 Добро пожаловать в рай Скачать торрент  

    Kesady писал(а):

    хороший фильм

    и мне неожиданно понравилсяpb.wtf



    22-01-2015 02:08 Добро пожаловать в рай Скачать торрент  

    Скатился Брюс Виллис до недофильмов. Печальное зрелище. nopb.wtf



    22-01-2015 05:26 Добро пожаловать в рай Скачать торрент  

    Очередной фильм с Уиллисом...pb.wtf



    22-01-2015 06:28 Добро пожаловать в рай Скачать торрент  

    Да, очень жаль. Сначала Ван Дамм, Сигал, потом Шварц, а теперь и Брюс стали сниматься в фильмах "отстой". Зажрались или скорее наоборот "ПОСТАРЕЛИ".Блин, третий фильм с Виллисом подряд и все дерьмецо... Жаль.pb.wtf



    22-01-2015 19:23 Добро пожаловать в рай Скачать торрент  

    по описанию вроде ничего, скачаю, спасибоpb.wtf



    23-01-2015 17:07 Добро пожаловать в рай Скачать торрент  

    нормальный фильмец на вечерок-хоть и без эффектов и бюджета-смотрится легко-ну а брюс здесь как бы просто в эпизодической роли-такого актера не нам судитьpb.wtf



    14-02-2015 15:11 Добро пожаловать в рай Скачать торрент  

    Редкостная чушь.Из-за робота столько живых людей перебилиpb.wtf



    22-03-2015 10:10 Добро пожаловать в рай Скачать торрент  

    не стоит даже качать!!!pb.wtf



    04-05-2015 18:10 Добро пожаловать в рай Скачать торрент  

    Эх, ради Уилиса скачаю хотя бы просто торрент файлpb.wtf



      Дорогой пользователь! Огромная просьба, поблагодарите релизера, оцените раздачу и оставьте свои комментарий, если Вы скачали Добро пожаловать в рай через торрент бесплатно! Внесите свою лепту в развитие PiratBit!
      Комментировать посты могут только пользователи прошедшие не сложную регистрацию
      Показать сообщения:    

      Добро пожаловать в рай через торрент
      Скачать бесплатно Добро пожаловать в рай
      Добро пожаловать в рай скачать торрент
      Добро пожаловать в рай смотреть онлайн
      Cкачать фильм Добро пожаловать в рай бесплатно
      Добро пожаловать в рай скачать торрент в хорошем качестве
      Добро пожаловать в рай смотреть онлайн бесплатно в хорошем качестве


      Вы не можете начинать темы
      Вы не можете отвечать на сообщения
      Вы не можете редактировать свои сообщения
      Вы не можете удалять свои сообщения
      Вы не можете голосовать в опросах
      Вы не можете прикреплять файлы к сообщениям
      Вы можете скачивать файлы