2 сезон

iTunes

1 сезон

1

iTunes

iTunes

iTunes

1 сезон

RePack

30

ИГРА 18+

pack

ВАЖНО

!!Акция!!

Alien_RageХит недели

RePack

MK11
pack

Забери бонус

RePack

jed

!!Акция!!

Alien_Rage

RePack

fifa19

RePack

Assassins Creed: Odyssey

RePack

NEED FOR SPEED™ PAYBACK

4 сезон

9 сезон

Бесстыжие 9 сезон

Все сериалы

все сериалы на PB.wtf

RePack

FAR CRY 5
  

Пингвины Мадагаскара / Penguins of Madagascar (Эрик Дарнелл / Eric Darnell, Саймон Дж. Смит / Simon J. Smith) [2014, США, мультфильм, комедия, приключения, WEB-DLRip, Дубляж - Лицензия / iTunes] pb.wtf

Пингвины Мадагаскара через торрент pb.wtf

Размер: 1.37 GB | Добавлен: 5 лет 9 мес. назад | Торрент скачан:4477 раз
Скачать  

22-01-2015 00:35 Пингвины Мадагаскара Скачать торрент  

Пингвины Мадагаскара / Penguins of Madagascar «В этот раз они не останутся в тени»
Год выпуска: 2014
Страна: США
Жанр: мультфильм, комедия, приключения, семейный
Продолжительность: 01:32:24
Перевод: Дубляж - [Лицензия / iTunes]
Субтитры: Отсутствует
Режиссер: Эрик Дарнелл / Eric Darnell, Саймон Дж. Смит / Simon J. Smith
В ролях:


Том МакГрат (Skipper, озвучка), Крис Миллер (Kowalski, озвучка), Кристофер Найтс (Private, озвучка), Конрад Вернон (Rico, озвучка), Джон Малкович (Dave, озвучка), Бенедикт Камбербэтч (Classified, озвучка), Кен Жонг (Short Fuse, озвучка), Аннет Махендру (Eva, озвучка), Петер Стормаре (Corporal, озвучка), Энди Рихтер (Mort, озвучка), Дэнни Джейкобс (King Julien, озвучка), Шон Чэрмэтц (Cricket, озвучка)

Описание:
Четвёрка пингвинов-шпионов - Шкипер, Ковальски, Рико и Прапор - объединяется с командой «Северный ветер», помогающей беззащитным животным. Им предстоит остановить злобного осьминога, доктора Октавиуса Брайна, желающего уничтожить этот мир...

Рейтинг:
Бюджет: $132 000 000
MPAA: PG - Рекомендуется присутствие родителей
Качество: WEB-DLRip
Формат: AVI
Видео кодек:XviD
Аудио кодек:AC3
Видео: XviD, 720x384 (1.875), 1639 kbps, 23,976 fps, 0,247 bpp
Аудио: AC3 / 5.1 / 48 kHz / 384 kbps / 16 bit

General
Complete name : D:\Users\_KaisiK_\uTorrent\P1ngv1ny.2014.D.WEB-DLRip.1400MB.uniongang.tv.avi
Format : AVI
Format/Info : Audio Video Interleave
File size : 1.37 GiB
Duration : 1h 32mn
Overall bit rate : 2 116 Kbps
Movie name : P1ngv1ny.2014.D.WEB-DLRip.1400MB.uniongang.tv
Director : 3imeMachi9e
Writing application : VirtualDubMod 1.5.10.3 | www.virtualdub-fr.org || (build 2550/release)
Copyright : UNIONGANG&RUSTORRENTSсын

Video
ID : 0
Format : MPEG-4 Visual
Format profile : Advanced Simple@L5
Format settings, BVOP : 2
Format settings, QPel : No
Format settings, GMC : No warppoints
Format settings, Matrix : Default (MPEG)
Codec ID : XVID
Codec ID/Hint : XviD
Duration : 1h 32mn
Bit rate : 1 639 Kbps
Width : 720 pixels
Height : 384 pixels
Display aspect ratio : 1.875
Frame rate : 23.976 fps
Color space : YUV
Chroma subsampling : 4:2:0
Bit depth : 8 bits
Scan type : Progressive
Compression mode : Lossy
Bits/(Pixel*Frame) : 0.247
Stream size : 1.06 GiB (77%)
Writing library : XviD 1.2.1 (UTC 2008-12-04)

Audio
ID : 1
Format : AC-3
Format/Info : Audio Coding 3
Mode extension : CM (complete main)
Codec ID : 2000
Duration : 1h 31mn
Bit rate mode : Constant
Bit rate : 384 Kbps
Channel(s) : 6 channels
Channel positions : Front: L C R, Side: L R, LFE
Sampling rate : 48.0 KHz
Bit depth : 16 bits
Compression mode : Lossy
Stream size : 252 MiB (18%)
Alignment : Split accross interleaves

[/code]
pb.wtf



Скачать Пингвины Мадагаскара через торрент http://i2.imageban.ru/out/2015/01/22/a3669671098d2296f31846d3acc09c5f.png Скачать фильм Пингвины Мадагаскара через торрент бесплантно в хорошем качестве Описание: Четвёрка пингвинов-шпионов - Шкипер, Ковальски, Рико и Прапор - объединяется с командой «Северный ветер», помогающей беззащитным ... 9.6 10 110
Info! Золотая раздача, скачанное не засчитывается.
Торрент: Зарегистрирован [2015-01-22 00:35] · скачан: 4 477 раз
Статус: √ проверено
Размер: 1.37 GB
Как cкачать? Как скачать Пингвины Мадагаскара через торрент | qTorrent

% Раздел Тема Автор DL S | L
Зарубежные Мультфильмы (BDRip 1080p, 720p, Blu-ray, BD-Remux) [ 4.36 GB ] Пингвины Мадагаскара / Penguins of Madagascar [2014 Мультфильм BDRip 1080p HEVC ] Мичман37 Скачать
2 | 0
Мультфильмы (48-60 fps) [ 3.69 GB ] Пингвины Мадагаскара / Penguins of Madagascar [2014 мультфильм BDRip-AVC 60fps ] от R.G. HD-Films Tiberiumsun69 Скачать
1 | 0
Мультфильмы (48-60 fps) [ 4.74 GB ] Пингвины Мадагаскара / Penguins of Madagascar [2014 мультфильм BDRip 720p / 60 fps] DUB от NNNB еnvy Скачать
1 | 0
Иностранные мультфильмы [ 1.46 GB ] Пингвины Мадагаскара / Penguins of Madagascar [2014 мультфильм HDRip ""] coc900 Скачать
2 | 0
Зарубежные Мультфильмы (BDRip 1080p, 720p, Blu-ray, BD-Remux) [ 9.99 GB ] Пингвины Мадагаскара / Penguins of Madagascar [2014 мультфильм BDRip 1080p] 2xDub + Original + Sub Seedtank Скачать
1 | 0
Зарубежные Мультфильмы (BDRip 1080p, 720p, Blu-ray, BD-Remux) [ 15.98 GB ] Пингвины Мадагаскара / Penguins of Madagascar [2014 Мультфильм полнометражный BD-Remux ] Бумер Скачать
1 | 0
Иностранные мультфильмы [ 1.71 GB ] Пингвины Мадагаскара / Penguins of Madagascar [2014 мультфильм BDRip-AVC от ExKinoRay / Russia] Ворон Скачать
1 | 0

28-11-2019 20:33  

Отключить всю рекламу на сайте

    Дорогой пользователь! Огромная просьба, поблагодарите релизера, оцените раздачу и оставьте свои комментарий, если Вы скачали Пингвины Мадагаскара через торрент бесплатно! Внесите свою лепту в развитие PiratBit!
    Комментировать посты могут только пользователи прошедшие не сложную регистрацию
    Показать сообщения:    

    Пингвины Мадагаскара через торрент
    Скачать бесплатно Пингвины Мадагаскара
    Пингвины Мадагаскара скачать торрент
    Пингвины Мадагаскара смотреть онлайн
    Cкачать фильм Пингвины Мадагаскара бесплатно
    Пингвины Мадагаскара скачать торрент в хорошем качестве
    Пингвины Мадагаскара смотреть онлайн бесплатно в хорошем качестве


    Вы не можете начинать темы
    Вы не можете отвечать на сообщения
    Вы не можете редактировать свои сообщения
    Вы не можете удалять свои сообщения
    Вы не можете голосовать в опросах
    Вы не можете прикреплять файлы к сообщениям
    Вы можете скачивать файлы