Достать ножи: Стеклянная луковица

MVO

Добыча

Дубляж

Уэнсдэй

1 сезон

Тор

Дубляж

13 клиническая

1 сезон

Жестокая ночь

MVO

Одни из нас

1 сезон

Deluxe

pack

Рекомендуем

30

Пиратка

ВАЖНО

ВАЖНО

Ghostwire

Пиратка

jed

RePack

nioh2

RePack

RDR2

RePack

NEED FOR SPEED™ PAYBACK

RePack

скачать торрент

Кинопоиск HD

Острые козырьки 6 сезон

6 сезон

FAR CRY 6

RePack

скачать торрент

Лицензия

скачать торрент

MVO

1

1 сезон

скачать торрент

1 сезон

скачать торрент

Лицензия

  

Переправа / Crossing Over (Уэйн Крамер) [2009, драма, BDRip 720p] DVO

Переправа через торрент pb.wtf

Размер: 5.46 GB | Добавлен: 8 лет назад | Торрент скачан:39 раз
Смотреть онлайн | Скачать | Поддержите нас   

22-01-2015 06:56 Переправа Скачать торрент  

Переправа / Crossing Over

Год выпуска: 2009
Страна: США
Жанр: драма
Продолжительность: 01:53:04
Перевод: профессиональный двухголосый
Субтитры: русские, английские, английские хардсабы на неанглийскую речь

Режиссёр: Уэйн Крамер

В ролях: Харрисон Форд, Рэй Лиотта, Эшли Джадд, Джим Стёрджесс, Клифф Кёртис, Уэст Лианг, Саммер Бишил, Ли Хорсли, Джейша Патель, Элис Ив, Алиса Брага, Джастин Чон, Маршалл Манеш, Кенни Коуплэнд-мл., Тим Чиу, Джош Гэд, Хосе Перез, Арамис Найт, Лиззи Кэплэн, Клаудия Салинас, Кевин Алехандро, Махершалальхашбаз Али, Крисси Фит, Майкл Эспарса, Чил Конг, Леандро Нэм, Чиоке Дмачи, Аура Фигейредо

Описание: Рассказ о нелегальных гастарбайтерах, попавших в США по разным причинам. Иммигранты пытаются легализовать свой статус. У кого-то это получается, а у кого-то нет…



Качество: BDRip 720p Сравнение с исходником
Формат: MKV
Видео кодек: H.264
Аудио кодек: AC3
Видео: 5875 Кбит/с, 1280x544, 23.976 кадра/с, 0.352 bpp
Аудио 1: русский, AC3, 448 kbps, 6 ch, 48 kHz [профессиональный двухголосый]
Аудио 2: английский, AC3, 448 kbps, 6 ch, 48 kHz [оригинал]
Общее
Уникальный идентификатор : 171004589987831328893418961590820824290 (0x80A6493A79D9A97787CE1B8A573C64E2)
Полное имя : D:VideoPereprava.2009.BDRip.720p.mkv
Формат : Matroska
Версия формата : Version 4 / Version 2
Размер файла : 5,46 Гбайт
Продолжительность : 1 ч. 53 м.
Общий поток : 6908 Кбит/сек
Дата кодирования : UTC 2015-01-21 11:01:42
Программа кодирования : mkvmerge v7.5.0 ('Glass Culture') 64bit built on Jan 4 2015 16:48:44
Библиотека кодирования : libebml v1.3.1 + libmatroska v1.4.2
DURATION : 01:42:22.957000000
NUMBER_OF_FRAMES : 1449
NUMBER_OF_BYTES : 46587
_STATISTICS_WRITING_APP : mkvmerge v7.5.0 ('Glass Culture') 64bit built on Jan 4 2015 16:48:44
_STATISTICS_WRITING_DATE_UTC : 2015-01-21 11:01:42
_STATISTICS_TAGS : BPS DURATION NUMBER_OF_FRAMES NUMBER_OF_BYTES

Видео
Идентификатор : 1
Формат : AVC
Формат/Информация : Advanced Video Codec
Профиль формата : [email protected]
Параметр CABAC формата : Да
Параметр ReFrames формата : 9 кадров
Идентификатор кодека : V_MPEG4/ISO/AVC
Продолжительность : 1 ч. 53 м.
Битрейт : 5875 Кбит/сек
Ширина : 1280 пикселей
Высота : 544 пикселя
Соотношение сторон : 2,35:1
Режим частоты кадров : Постоянный
Частота кадров : 23,976 кадра/сек
Цветовое пространство : YUV
Субдискретизация насыщенности : 4:2:0
Битовая глубина : 8 бит
Тип развёртки : Прогрессивная
Бит/(Пиксели*Кадры) : 0.352
Размер потока : 4,64 Гбайт (85%)
Заголовок : BDRip -- STarankov
Библиотека кодирования : x264 core 142 r2431 ac76440
Настройки программы : cabac=1 / ref=9 / deblock=1:-1:-1 / analyse=0x3:0x113 / me=umh / subme=10 / psy=1 / psy_rd=1.00:0.15 / mixed_ref=1 / me_range=32 / chroma_me=1 / trellis=2 / 8x8dct=1 / cqm=0 / deadzone=21,11 / fast_pskip=1 / chroma_qp_offset=-3 / threads=6 / lookahead_threads=1 / sliced_threads=0 / nr=0 / decimate=1 / interlaced=0 / bluray_compat=0 / constrained_intra=0 / bframes=8 / b_pyramid=2 / b_adapt=2 / b_bias=0 / direct=3 / weightb=1 / open_gop=0 / weightp=2 / keyint=230 / keyint_min=23 / scenecut=40 / intra_refresh=0 / rc_lookahead=40 / rc=crf / mbtree=0 / crf=17.2 / qcomp=0.60 / qpmin=0 / qpmax=69 / qpstep=4 / vbv_maxrate=40000 / vbv_bufsize=50000 / crf_max=0.0 / nal_hrd=none / filler=0 / ip_ratio=1.40 / pb_ratio=1.30 / aq=1:1.00
Язык : English
Default : Да
Forced : Нет
DURATION : 01:53:04.611000000
NUMBER_OF_FRAMES : 162668
NUMBER_OF_BYTES : 5096630033
_STATISTICS_WRITING_APP : mkvmerge v7.5.0 ('Glass Culture') 64bit built on Jan 4 2015 16:48:44
_STATISTICS_WRITING_DATE_UTC : 2015-01-21 11:01:42
_STATISTICS_TAGS : BPS DURATION NUMBER_OF_FRAMES NUMBER_OF_BYTES

Аудио #1
Идентификатор : 2
Формат : AC-3
Формат/Информация : Audio Coding 3
Расширение режима : CM (complete main)
Параметр Endianness формата : Big
Идентификатор кодека : A_AC3
Продолжительность : 1 ч. 53 м.
Вид битрейта : Постоянный
Битрейт : 448 Кбит/сек
Каналы : 6 каналов
Расположение каналов : Front: L C R, Side: L R, LFE
Частота : 48,0 КГц
Битовая глубина : 16 бит
Метод сжатия : С потерями
Размер потока : 362 Мбайт (6%)
Заголовок : DVO
Язык : Russian
Default : Да
Forced : Нет

Аудио #2
Идентификатор : 3
Формат : AC-3
Формат/Информация : Audio Coding 3
Расширение режима : CM (complete main)
Параметр Endianness формата : Big
Идентификатор кодека : A_AC3
Продолжительность : 1 ч. 53 м.
Вид битрейта : Постоянный
Битрейт : 448 Кбит/сек
Каналы : 6 каналов
Расположение каналов : Front: L C R, Side: L R, LFE
Частота : 48,0 КГц
Битовая глубина : 16 бит
Метод сжатия : С потерями
Размер потока : 362 Мбайт (6%)
Заголовок : Original
Язык : English
Default : Нет
Forced : Нет

Текст #1
Идентификатор : 4
Формат : UTF-8
Идентификатор кодека : S_TEXT/UTF8
Идентификатор кодека/Информация : UTF-8 Plain Text
Заголовок : русский
Язык : Russian
Default : Нет
Forced : Нет

Текст #2
Идентификатор : 5
Формат : UTF-8
Идентификатор кодека : S_TEXT/UTF8
Идентификатор кодека/Информация : UTF-8 Plain Text
Заголовок : английский
Default : Нет
Forced : Нет



Скачать Переправа через торрент http://i64.fastpic.ru/big/2015/0122/28/8d58eb6960049c866c6d96353436e628.jpg Скачать, смотреть онлайн Переправа бесплантно в хорошем качестве Описание: Рассказ о нелегальных гастарбайтерах, попавших в США по разным причинам. Иммигранты пытаются легализовать свой статус. У кого-то ... 10 10 4
Торрент: Зарегистрирован [2015-01-22 06:56] · скачан: 39 раз
Статус: √ проверено
Размер: 5.46 GB
Как cкачать? Как скачать Переправа через торрент | UTorrent

% Раздел Тема Автор DL S | L
Фильмы [HD 720p, 1080p] (Хороший звук DUB, MVO) [ 13.08 GB ] Переправа / Crossing Over | | 1080p msltel Скачать
1 | 0
Фильмы 2006-2008 [ 2.18 GB ] Переправа / Crossing Over | Лицензия | BDRip-AVC potroks Скачать
1 | 0

28-11-2019 20:33  


Отключить вcю реклaмy на сайте, в т.ч. и в плеере онлайн просмотра!

    Дорогой пользователь! Огромная просьба, поблагодарите релизера, оцените раздачу и оставьте свои комментарий, если Вы скачали Переправа через торрент бесплатно!!
    Комментировать посты могут только пользователи прошедшие не сложную регистрацию
    Показать сообщения:    


    Переправа через торрент
    Скачать бесплатно Переправа
    Переправа скачать торрент
    Переправа смотреть онлайн
    Cкачать фильм Переправа бесплатно
    Переправа скачать торрент в хорошем качестве
    Переправа смотреть онлайн бесплатно в хорошем качестве
    Вы не можете начинать темы
    Вы не можете отвечать на сообщения
    Вы не можете редактировать свои сообщения
    Вы не можете удалять свои сообщения
    Вы не можете голосовать в опросах
    Вы не можете прикреплять файлы к сообщениям
    Вы можете скачивать файлы
    Переправа / Crossing Over [2009, драма, BDRip 720p] DVO смотреть онлайн, скачать торрент picoco.icu