Присоединяйтесь к нам в Telegram!, здесь всегда актуальный адрес сайта, оперативная поддержка и многое другое!!

>

5.9

iTunes

7.4

iTunes

9.4

1 сезон

1

7.4

2 сезон

7.2

iTunes

7.3

1 сезон

13

6.1

iTunes

8.3

GOG

30

ULTIMATE

pack

9.9

Лицензия

ВАЖНО

ИГРА 18+

pack

7.3

RePack

MK11

7.7

RePack

jed

7.8

RePack

fifa19

8.5

RePack

RDR2

RePack

NEED FOR SPEED™ PAYBACK

5 сезон

9 сезон

Бесстыжие 9 сезон

Все сериалы

все сериалы на PB.wtf

RePack

FAR CRY 5

Anonymous, доброе утро, мы катастрофически не успеваем собрать деньги на оплату серверов, помогите нам пожалуйста 5,10,15р., для нас важна любая помощь . В качестве благодарности мы отключим Вам всю рекламу на сайте (укажите свой ник в строку Ваше имя)!

×
  
Magnet ссылка

Я. Сумишевский и Народный Махор [2014 г., Музыкальное реалити-шоу, поп, ретро, шансон, WEB-Rip 720p] pb.wtf

Я. Сумишевский и Народный Махор через торрент pb.wtf

Размер: 813 MB | Добавлен: 6 лет 10 мес. назад | Торрент скачан:97 раз
Смотреть онлайн Я. Сумишевский и Народный Махор | Скачать    Ребята, помогите собрать деньги на оплату серверов!!!

23-01-2015 18:22 Я. Сумишевский и Народный Махор Скачать торрент  

Я. Сумишевский и Народный Махор




Год выпуска: 2014
Страна: Россия
Жанр: Музыкальное реалити-шоу, поп, ретро, шансон
Продолжительность: 00:55:16
Перевод: Не требуется




Исполнители: Я. Сумишевский, В. Беранчук, Г. Гусев, Е. Турлубеков, Р. Третьяков, А. Веденина




Описание: "Народный Махор" - музыкальное реалити-шоу. Ярослав Сумишевский и Алёна Веденина ищут талантливых певцов в ресторанах, кафе, барах Москвы и Подмосковья




Качество: WEB-Rip 720p
Формат: MP4
Видео кодек: AVC
Аудио кодек: AAC
Видео: 1280x720 (16:9), ~1830 kbps, 25,000, 29,970 fps
Аудио: 192 kbps, 2 ch, 44,1 kHz




01. Я. Сумишевский - Ах, туман
02. Я. Сумишевский - Не плачь (Песня моряка)
03. Я. Сумишевский и В. Беранчук - Необыкновенная
04. Я. Сумишевский и Г. Гусев - Алёна
05. Я. Сумишевский и Г. Гусев - Поздно мы с тобой поняли
06. Я. Сумишевский и Е. Турлубеков - В землянке
07. Я. Сумишевский и Е. Турлубеков - Конь
08. Я. Сумишевский и Е. Турлубеков - Черный ворон
09. Я. Сумишевский и Р. Третьяков - Я люблю тебя до слёз
10. Герман Гусев - Давай живи
11. Я. Сумишевский и А. Веденина - Снег
12. Я. Сумишевский и И. Станкевич - Обернитесь
13. Я. Сумишевский и В. Добровинский - Вернись любовь


Общее
Полное имя : D:ВидеоНародный Махор1. Я. Сумишевский - Ах, туман.mp4
Формат : MPEG-4
Профиль формата : Base Media / Version 2
Идентификатор кодека : mp42
Размер файла : 47,1 Мбайт
Продолжительность : 3 м. 13 с.
Режим общего битрейта : Переменный
Общий поток : 2046 Кбит/сек
Дата кодирования : UTC 2014-09-27 01:20:54
Дата пометки : UTC 2014-09-27 01:20:54
gsst : 0
gstd : 193096
gssd : B0AFCE273HH1421782810112021
gshh : r9---sn-4g57knk7.googlevideo.com

Видео
Идентификатор : 1
Формат : AVC
Формат/Информация : Advanced Video Codec
Профиль формата : High@L3.1
Параметр CABAC формата : Да
Параметр ReFrames формата : 1 кадр
Идентификатор кодека : avc1
Идентификатор кодека/Информация : Advanced Video Coding
Продолжительность : 3 м. 13 с.
Битрейт : 1851 Кбит/сек
Максимальный битрейт : 4823 Кбит/сек
Ширина : 1280 пикселей
Высота : 720 пикселей
Соотношение сторон : 16:9
Режим частоты кадров : Постоянный
Частота кадров : 25,000 кадров/сек
Цветовое пространство : YUV
Субдискретизация насыщенности : 4:2:0
Битовая глубина : 8 бит
Тип развёртки : Прогрессивная
Бит/(Пиксели*Кадры) : 0.080
Размер потока : 42,6 Мбайт (90%)
Дата пометки : UTC 2014-09-27 01:20:56

Аудио
Идентификатор : 2
Формат : AAC
Формат/Информация : Advanced Audio Codec
Профиль формата : LC
Идентификатор кодека : 40
Продолжительность : 3 м. 13 с.
Вид битрейта : Переменный
Битрейт : 192 Кбит/сек
Максимальный битрейт : 202 Кбит/сек
Каналы : 2 канала
Расположение каналов : Front: L R
Частота : 44,1 КГц
Метод сжатия : С потерями
Размер потока : 4,42 Мбайт (9%)
Заголовок : IsoMedia File Produced by Google, 5-11-2011
Дата кодирования : UTC 2014-09-27 01:20:56
Дата пометки : UTC 2014-09-27 01:20:56

Общее
Полное имя : D:ВидеоНародный Махор2. Я. Сумишевский - Не плачь (Песня моряка).mp4
Формат : MPEG-4
Профиль формата : Base Media / Version 2
Идентификатор кодека : mp42
Размер файла : 58,5 Мбайт
Продолжительность : 3 м. 58 с.
Режим общего битрейта : Переменный
Общий поток : 2053 Кбит/сек
Дата кодирования : UTC 2014-11-12 03:29:46
Дата пометки : UTC 2014-11-12 03:29:46
gsst : 0
gstd : 238978
gssd : B0AFCE292HH1421782146378338
gshh : r7---sn-4g57knl7.googlevideo.com

Видео
Идентификатор : 1
Формат : AVC
Формат/Информация : Advanced Video Codec
Профиль формата : High@L3.1
Параметр CABAC формата : Да
Параметр ReFrames формата : 1 кадр
Параметр GOP формата : M=1, N=60
Идентификатор кодека : avc1
Идентификатор кодека/Информация : Advanced Video Coding
Продолжительность : 3 м. 58 с.
Битрейт : 1858 Кбит/сек
Максимальный битрейт : 5299 Кбит/сек
Ширина : 1280 пикселей
Высота : 720 пикселей
Соотношение сторон : 16:9
Режим частоты кадров : Постоянный
Частота кадров : 25,000 кадров/сек
Цветовое пространство : YUV
Субдискретизация насыщенности : 4:2:0
Битовая глубина : 8 бит
Тип развёртки : Прогрессивная
Бит/(Пиксели*Кадры) : 0.081
Размер потока : 52,9 Мбайт (91%)
Дата пометки : UTC 2014-11-12 03:29:48

Аудио
Идентификатор : 2
Формат : AAC
Формат/Информация : Advanced Audio Codec
Профиль формата : LC
Идентификатор кодека : 40
Продолжительность : 3 м. 58 с.
Вид битрейта : Переменный
Битрейт : 192 Кбит/сек
Максимальный битрейт : 202 Кбит/сек
Каналы : 2 канала
Расположение каналов : Front: L R
Частота : 44,1 КГц
Метод сжатия : С потерями
Размер потока : 5,47 Мбайт (9%)
Заголовок : IsoMedia File Produced by Google, 5-11-2011
Дата кодирования : UTC 2014-11-12 03:29:47
Дата пометки : UTC 2014-11-12 03:29:48

Общее
Полное имя : D:ВидеоНародный Махор3. Я. Сумишевский и В. Баранчук - Необыкновенная.mp4
Формат : MPEG-4
Профиль формата : Base Media / Version 2
Идентификатор кодека : mp42
Размер файла : 51,0 Мбайт
Продолжительность : 3 м. 44 с.
Режим общего битрейта : Переменный
Общий поток : 1906 Кбит/сек
Дата кодирования : UTC 2014-09-05 01:37:27
Дата пометки : UTC 2014-09-05 01:37:27
gsst : 0
gstd : 224350
gssd : B0AFCE214HH1421784088371911
gshh : r16---sn-4g57knld.googlevideo.com

Видео
Идентификатор : 1
Формат : AVC
Формат/Информация : Advanced Video Codec
Профиль формата : High@L3.1
Параметр CABAC формата : Да
Параметр ReFrames формата : 1 кадр
Идентификатор кодека : avc1
Идентификатор кодека/Информация : Advanced Video Coding
Продолжительность : 3 м. 44 с.
Битрейт : 1712 Кбит/сек
Максимальный битрейт : 3558 Кбит/сек
Ширина : 1280 пикселей
Высота : 720 пикселей
Соотношение сторон : 16:9
Режим частоты кадров : Постоянный
Частота кадров : 25,000 кадров/сек
Цветовое пространство : YUV
Субдискретизация насыщенности : 4:2:0
Битовая глубина : 8 бит
Тип развёртки : Прогрессивная
Бит/(Пиксели*Кадры) : 0.074
Размер потока : 45,8 Мбайт (90%)
Дата пометки : UTC 2014-09-05 01:37:28

Аудио
Идентификатор : 2
Формат : AAC
Формат/Информация : Advanced Audio Codec
Профиль формата : LC
Идентификатор кодека : 40
Продолжительность : 3 м. 44 с.
Вид битрейта : Переменный
Битрейт : 192 Кбит/сек
Максимальный битрейт : 201 Кбит/сек
Каналы : 2 канала
Расположение каналов : Front: L R
Частота : 44,1 КГц
Метод сжатия : С потерями
Размер потока : 5,13 Мбайт (10%)
Заголовок : IsoMedia File Produced by Google, 5-11-2011
Дата кодирования : UTC 2014-09-05 01:37:28
Дата пометки : UTC 2014-09-05 01:37:28

Общее
Полное имя : D:ВидеоНародный Махор4. Я. Сумишевский и Г. Гусев - Алёна.mp4
Формат : MPEG-4
Профиль формата : Base Media / Version 2
Идентификатор кодека : mp42
Размер файла : 71,4 Мбайт
Продолжительность : 4 м. 6 с.
Режим общего битрейта : Переменный
Общий поток : 2435 Кбит/сек
Дата кодирования : UTC 2015-01-15 06:00:43
Дата пометки : UTC 2015-01-15 06:00:43
gsst : 0
gstd : 246200
gssd : B0AFCE1A2HH1421783603831469
gshh : r5---sn-4g57knke.googlevideo.com

Видео
Идентификатор : 1
Формат : AVC
Формат/Информация : Advanced Video Codec
Профиль формата : High@L3.1
Параметр CABAC формата : Да
Параметр ReFrames формата : 1 кадр
Параметр GOP формата : M=1, N=60
Идентификатор кодека : avc1
Идентификатор кодека/Информация : Advanced Video Coding
Продолжительность : 4 м. 6 с.
Битрейт : 2240 Кбит/сек
Максимальный битрейт : 4568 Кбит/сек
Ширина : 1280 пикселей
Высота : 720 пикселей
Соотношение сторон : 16:9
Режим частоты кадров : Постоянный
Частота кадров : 29,970 кадров/сек
Цветовое пространство : YUV
Субдискретизация насыщенности : 4:2:0
Битовая глубина : 8 бит
Тип развёртки : Прогрессивная
Бит/(Пиксели*Кадры) : 0.081
Размер потока : 65,7 Мбайт (92%)
Дата пометки : UTC 2015-01-15 06:00:44

Аудио
Идентификатор : 2
Формат : AAC
Формат/Информация : Advanced Audio Codec
Профиль формата : LC
Идентификатор кодека : 40
Продолжительность : 4 м. 6 с.
Вид битрейта : Переменный
Битрейт : 192 Кбит/сек
Максимальный битрейт : 203 Кбит/сек
Каналы : 2 канала
Расположение каналов : Front: L R
Частота : 44,1 КГц
Метод сжатия : С потерями
Размер потока : 5,63 Мбайт (8%)
Заголовок : IsoMedia File Produced by Google, 5-11-2011
Дата кодирования : UTC 2015-01-15 06:00:43
Дата пометки : UTC 2015-01-15 06:00:44

Общее
Полное имя : D:ВидеоНародный Махор5. Я. Сумишевский и Г. Гусев - Поздно мы с тобой поняли.mp4
Формат : MPEG-4
Профиль формата : Base Media / Version 2
Идентификатор кодека : mp42
Размер файла : 128 Мбайт
Продолжительность : 7 м. 33 с.
Режим общего битрейта : Переменный
Общий поток : 2366 Кбит/сек
Дата кодирования : UTC 2014-03-07 10:19:20
Дата пометки : UTC 2014-03-07 10:19:20
gsst : 0
gstd : 453740
gssd : B0AFCE314HH1421782501887688
gshh : r15---sn-4g57knzs.googlevideo.com

Видео
Идентификатор : 1
Формат : AVC
Формат/Информация : Advanced Video Codec
Профиль формата : High@L3.1
Параметр CABAC формата : Да
Параметр ReFrames формата : 1 кадр
Параметр GOP формата : M=1, N=60
Идентификатор кодека : avc1
Идентификатор кодека/Информация : Advanced Video Coding
Продолжительность : 7 м. 33 с.
Битрейт : 2172 Кбит/сек
Максимальный битрейт : 4605 Кбит/сек
Ширина : 1280 пикселей
Высота : 720 пикселей
Соотношение сторон : 16:9
Режим частоты кадров : Постоянный
Частота кадров : 29,970 кадров/сек
Цветовое пространство : YUV
Субдискретизация насыщенности : 4:2:0
Битовая глубина : 8 бит
Тип развёртки : Прогрессивная
Бит/(Пиксели*Кадры) : 0.079
Размер потока : 117 Мбайт (92%)
Дата пометки : UTC 2014-03-07 10:19:26

Аудио
Идентификатор : 2
Формат : AAC
Формат/Информация : Advanced Audio Codec
Профиль формата : LC
Идентификатор кодека : 40
Продолжительность : 7 м. 33 с.
Вид битрейта : Переменный
Битрейт : 192 Кбит/сек
Максимальный битрейт : 202 Кбит/сек
Каналы : 2 канала
Расположение каналов : Front: L R
Частота : 44,1 КГц
Метод сжатия : С потерями
Размер потока : 10,4 Мбайт (8%)
Заголовок : IsoMedia File Produced by Google, 5-11-2011
Дата кодирования : UTC 2014-03-07 10:19:23
Дата пометки : UTC 2014-03-07 10:19:26

Общее
Полное имя : D:ВидеоНародный Махор6. Я. Сумишевский и Е. Турлубеков - В землянке.mp4
Формат : MPEG-4
Профиль формата : Base Media / Version 2
Идентификатор кодека : mp42
Размер файла : 57,7 Мбайт
Продолжительность : 3 м. 51 с.
Режим общего битрейта : Переменный
Общий поток : 2086 Кбит/сек
Дата кодирования : UTC 2015-01-04 05:41:39
Дата пометки : UTC 2015-01-04 05:41:39
gsst : 0
gstd : 231943
gssd : B0AFCE1FBHH1421781330424508
gshh : r9---sn-4g57knk6.googlevideo.com

Видео
Идентификатор : 1
Формат : AVC
Формат/Информация : Advanced Video Codec
Профиль формата : High@L3.1
Параметр CABAC формата : Да
Параметр ReFrames формата : 1 кадр
Идентификатор кодека : avc1
Идентификатор кодека/Информация : Advanced Video Coding
Продолжительность : 3 м. 51 с.
Битрейт : 1892 Кбит/сек
Максимальный битрейт : 3399 Кбит/сек
Ширина : 1280 пикселей
Высота : 720 пикселей
Соотношение сторон : 16:9
Режим частоты кадров : Постоянный
Частота кадров : 25,000 кадров/сек
Цветовое пространство : YUV
Субдискретизация насыщенности : 4:2:0
Битовая глубина : 8 бит
Тип развёртки : Прогрессивная
Бит/(Пиксели*Кадры) : 0.082
Размер потока : 52,3 Мбайт (91%)
Дата пометки : UTC 2015-01-04 05:41:41

Аудио
Идентификатор : 2
Формат : AAC
Формат/Информация : Advanced Audio Codec
Профиль формата : LC
Идентификатор кодека : 40
Продолжительность : 3 м. 51 с.
Вид битрейта : Переменный
Битрейт : 192 Кбит/сек
Максимальный битрейт : 203 Кбит/сек
Каналы : 2 канала
Расположение каналов : Front: L R
Частота : 44,1 КГц
Метод сжатия : С потерями
Размер потока : 5,31 Мбайт (9%)
Заголовок : IsoMedia File Produced by Google, 5-11-2011
Дата кодирования : UTC 2015-01-04 05:41:40
Дата пометки : UTC 2015-01-04 05:41:41

Общее
Полное имя : D:ВидеоНародный Махор7. Я. Сумишевский и Е. Турлубеков - Конь.mp4
Формат : MPEG-4
Профиль формата : Base Media / Version 2
Идентификатор кодека : mp42
Размер файла : 37,7 Мбайт
Продолжительность : 3 м. 57 с.
Режим общего битрейта : Переменный
Общий поток : 1329 Кбит/сек
Дата кодирования : UTC 2014-11-14 09:46:59
Дата пометки : UTC 2014-11-14 09:46:59
gsst : 0
gstd : 237748
gssd : B0AFCE1E2HH1421091191325799
gshh : r6---sn-4g57knek.googlevideo.com

Видео
Идентификатор : 1
Формат : AVC
Формат/Информация : Advanced Video Codec
Профиль формата : High@L3.1
Параметр CABAC формата : Да
Параметр ReFrames формата : 1 кадр
Параметр GOP формата : M=1, N=60
Идентификатор кодека : avc1
Идентификатор кодека/Информация : Advanced Video Coding
Продолжительность : 3 м. 57 с.
Битрейт : 1135 Кбит/сек
Максимальный битрейт : 1891 Кбит/сек
Ширина : 1280 пикселей
Высота : 720 пикселей
Соотношение сторон : 16:9
Режим частоты кадров : Постоянный
Частота кадров : 25,000 кадров/сек
Цветовое пространство : YUV
Субдискретизация насыщенности : 4:2:0
Битовая глубина : 8 бит
Тип развёртки : Прогрессивная
Бит/(Пиксели*Кадры) : 0.049
Размер потока : 32,1 Мбайт (85%)
Дата пометки : UTC 2014-11-14 09:47:01

Аудио
Идентификатор : 2
Формат : AAC
Формат/Информация : Advanced Audio Codec
Профиль формата : LC
Идентификатор кодека : 40
Продолжительность : 3 м. 57 с.
Вид битрейта : Переменный
Битрейт : 192 Кбит/сек
Максимальный битрейт : 201 Кбит/сек
Каналы : 2 канала
Расположение каналов : Front: L R
Частота : 44,1 КГц
Метод сжатия : С потерями
Размер потока : 5,44 Мбайт (14%)
Заголовок : IsoMedia File Produced by Google, 5-11-2011
Дата кодирования : UTC 2014-11-14 09:47:00
Дата пометки : UTC 2014-11-14 09:47:01

Общее
Полное имя : D:ВидеоНародный Махор8. Я. Сумишевский и Е. Турлубеков - Черный ворон.mp4
Формат : MPEG-4
Профиль формата : Base Media / Version 2
Идентификатор кодека : mp42
Размер файла : 42,5 Мбайт
Продолжительность : 3 м. 50 с.
Режим общего битрейта : Переменный
Общий поток : 1548 Кбит/сек
Дата кодирования : UTC 2014-11-26 09:54:19
Дата пометки : UTC 2014-11-26 09:54:19
gsst : 0
gstd : 230666
gssd : B0AFCE2DDHH1421091214597337
gshh : r19---sn-4g57kn76.googlevideo.com

Видео
Идентификатор : 1
Формат : AVC
Формат/Информация : Advanced Video Codec
Профиль формата : High@L3.1
Параметр CABAC формата : Да
Параметр ReFrames формата : 1 кадр
Идентификатор кодека : avc1
Идентификатор кодека/Информация : Advanced Video Coding
Продолжительность : 3 м. 50 с.
Битрейт : 1353 Кбит/сек
Максимальный битрейт : 3398 Кбит/сек
Ширина : 1280 пикселей
Высота : 720 пикселей
Соотношение сторон : 16:9
Режим частоты кадров : Постоянный
Частота кадров : 25,000 кадров/сек
Цветовое пространство : YUV
Субдискретизация насыщенности : 4:2:0
Битовая глубина : 8 бит
Тип развёртки : Прогрессивная
Бит/(Пиксели*Кадры) : 0.059
Размер потока : 37,2 Мбайт (87%)
Дата пометки : UTC 2014-11-26 09:54:21

Аудио
Идентификатор : 2
Формат : AAC
Формат/Информация : Advanced Audio Codec
Профиль формата : LC
Идентификатор кодека : 40
Продолжительность : 3 м. 50 с.
Вид битрейта : Переменный
Битрейт : 192 Кбит/сек
Максимальный битрейт : 201 Кбит/сек
Каналы : 2 канала
Расположение каналов : Front: L R
Частота : 44,1 КГц
Метод сжатия : С потерями
Размер потока : 5,28 Мбайт (12%)
Заголовок : IsoMedia File Produced by Google, 5-11-2011
Дата кодирования : UTC 2014-11-26 09:54:20
Дата пометки : UTC 2014-11-26 09:54:21

Общее
Полное имя : D:ВидеоНародный Махор9. Я. Сумишевский и Р. Третьяков - Я люблю тебя до слёз.mp4
Формат : MPEG-4
Профиль формата : Base Media / Version 2
Идентификатор кодека : mp42
Размер файла : 55,4 Мбайт
Продолжительность : 4 м. 15 с.
Режим общего битрейта : Переменный
Общий поток : 1815 Кбит/сек
Дата кодирования : UTC 2015-01-12 07:36:47
Дата пометки : UTC 2015-01-12 07:36:47
gsst : 0
gstd : 255930
gssd : B0AFCE1FBHH1421783511245999
gshh : r9---sn-4g57knk6.googlevideo.com

Видео
Идентификатор : 1
Формат : AVC
Формат/Информация : Advanced Video Codec
Профиль формата : High@L3.1
Параметр CABAC формата : Да
Параметр ReFrames формата : 1 кадр
Параметр GOP формата : M=1, N=60
Идентификатор кодека : avc1
Идентификатор кодека/Информация : Advanced Video Coding
Продолжительность : 4 м. 15 с.
Битрейт : 1620 Кбит/сек
Максимальный битрейт : 3541 Кбит/сек
Ширина : 1280 пикселей
Высота : 720 пикселей
Соотношение сторон : 16:9
Режим частоты кадров : Постоянный
Частота кадров : 25,000 кадров/сек
Цветовое пространство : YUV
Субдискретизация насыщенности : 4:2:0
Битовая глубина : 8 бит
Тип развёртки : Прогрессивная
Бит/(Пиксели*Кадры) : 0.070
Размер потока : 49,4 Мбайт (89%)
Дата пометки : UTC 2015-01-12 07:36:49

Аудио
Идентификатор : 2
Формат : AAC
Формат/Информация : Advanced Audio Codec
Профиль формата : LC
Идентификатор кодека : 40
Продолжительность : 4 м. 15 с.
Вид битрейта : Переменный
Битрейт : 192 Кбит/сек
Максимальный битрейт : 203 Кбит/сек
Каналы : 2 канала
Расположение каналов : Front: L R
Частота : 44,1 КГц
Метод сжатия : С потерями
Размер потока : 5,86 Мбайт (11%)
Заголовок : IsoMedia File Produced by Google, 5-11-2011
Дата кодирования : UTC 2015-01-12 07:36:48
Дата пометки : UTC 2015-01-12 07:36:49

Общее
Полное имя : D:ВидеоНародный Махор10. Герман Гусев - Давай живи.mp4
Формат : MPEG-4
Профиль формата : Base Media / Version 2
Идентификатор кодека : mp42
Размер файла : 87,0 Мбайт
Продолжительность : 4 м. 55 с.
Режим общего битрейта : Переменный
Общий поток : 2471 Кбит/сек
Дата кодирования : UTC 2014-11-21 10:10:27
Дата пометки : UTC 2014-11-21 10:10:27
gsst : 0
gstd : 295496
gssd : B0AFCE4C2MH1421788863113411
gshh : r8---sn-p5qlsnse.googlevideo.com

Видео
Идентификатор : 1
Формат : AVC
Формат/Информация : Advanced Video Codec
Профиль формата : High@L3.1
Параметр CABAC формата : Да
Параметр ReFrames формата : 1 кадр
Идентификатор кодека : avc1
Идентификатор кодека/Информация : Advanced Video Coding
Продолжительность : 4 м. 55 с.
Битрейт : 2276 Кбит/сек
Максимальный битрейт : 5427 Кбит/сек
Ширина : 1280 пикселей
Высота : 720 пикселей
Соотношение сторон : 16:9
Режим частоты кадров : Постоянный
Частота кадров : 29,970 кадров/сек
Цветовое пространство : YUV
Субдискретизация насыщенности : 4:2:0
Битовая глубина : 8 бит
Тип развёртки : Прогрессивная
Бит/(Пиксели*Кадры) : 0.082
Размер потока : 80,2 Мбайт (92%)
Дата пометки : UTC 2014-11-21 10:10:30

Аудио
Идентификатор : 2
Формат : AAC
Формат/Информация : Advanced Audio Codec
Профиль формата : LC
Идентификатор кодека : 40
Продолжительность : 4 м. 55 с.
Вид битрейта : Переменный
Битрейт : 192 Кбит/сек
Максимальный битрейт : 202 Кбит/сек
Каналы : 2 канала
Расположение каналов : Front: L R
Частота : 44,1 КГц
Метод сжатия : С потерями
Размер потока : 6,76 Мбайт (8%)
Заголовок : IsoMedia File Produced by Google, 5-11-2011
Дата кодирования : UTC 2014-11-21 10:10:29
Дата пометки : UTC 2014-11-21 10:10:30

Общее
Полное имя : D:ВидеоНародный Махор11. Я. Сумишевский и А. Веденина - Снег.mp4
Формат : MPEG-4
Профиль формата : Base Media / Version 2
Идентификатор кодека : mp42
Размер файла : 72,3 Мбайт
Продолжительность : 4 м. 32 с.
Режим общего битрейта : Переменный
Общий поток : 2229 Кбит/сек
Дата кодирования : UTC 2014-05-25 12:02:30
Дата пометки : UTC 2014-05-25 12:02:30
gsst : 0
gstd : 272090
gssd : B0AFCE331HH1421862632101631
gshh : r1---sn-4g57knzr.googlevideo.com

Видео
Идентификатор : 1
Формат : AVC
Формат/Информация : Advanced Video Codec
Профиль формата : High@L3.1
Параметр CABAC формата : Да
Параметр ReFrames формата : 1 кадр
Идентификатор кодека : avc1
Идентификатор кодека/Информация : Advanced Video Coding
Продолжительность : 4 м. 32 с.
Битрейт : 2035 Кбит/сек
Максимальный битрейт : 4158 Кбит/сек
Ширина : 1280 пикселей
Высота : 720 пикселей
Соотношение сторон : 16:9
Режим частоты кадров : Постоянный
Частота кадров : 29,970 кадров/сек
Цветовое пространство : YUV
Субдискретизация насыщенности : 4:2:0
Битовая глубина : 8 бит
Тип развёртки : Прогрессивная
Бит/(Пиксели*Кадры) : 0.074
Размер потока : 66,0 Мбайт (91%)
Дата пометки : UTC 2014-05-25 12:02:31

Аудио
Идентификатор : 2
Формат : AAC
Формат/Информация : Advanced Audio Codec
Профиль формата : LC
Идентификатор кодека : 40
Продолжительность : 4 м. 32 с.
Вид битрейта : Переменный
Битрейт : 192 Кбит/сек
Максимальный битрейт : 201 Кбит/сек
Каналы : 2 канала
Расположение каналов : Front: L R
Частота : 44,1 КГц
Метод сжатия : С потерями
Размер потока : 6,23 Мбайт (9%)
Заголовок : IsoMedia File Produced by Google, 5-11-2011
Дата кодирования : UTC 2014-05-25 12:02:31
Дата пометки : UTC 2014-05-25 12:02:31

Общее
Полное имя : D:ВидеоНародный Махор12. Я. Сумишевский и И. Станкевич - Обернитесь.mp4
Формат : MPEG-4
Профиль формата : Base Media / Version 2
Идентификатор кодека : mp42
Размер файла : 52,6 Мбайт
Продолжительность : 3 м. 41 с.
Режим общего битрейта : Переменный
Общий поток : 1988 Кбит/сек
Дата кодирования : UTC 2014-11-28 23:12:50
Дата пометки : UTC 2014-11-28 23:12:50
gsst : 0
gstd : 221843
gssd : B0AFCE214HH1421863286473569
gshh : r13---sn-4g57knld.googlevideo.com

Видео
Идентификатор : 1
Формат : AVC
Формат/Информация : Advanced Video Codec
Профиль формата : High@L3.1
Параметр CABAC формата : Да
Параметр ReFrames формата : 1 кадр
Идентификатор кодека : avc1
Идентификатор кодека/Информация : Advanced Video Coding
Продолжительность : 3 м. 41 с.
Битрейт : 1794 Кбит/сек
Максимальный битрейт : 2725 Кбит/сек
Ширина : 1280 пикселей
Высота : 720 пикселей
Соотношение сторон : 16:9
Режим частоты кадров : Постоянный
Частота кадров : 29,970 кадров/сек
Цветовое пространство : YUV
Субдискретизация насыщенности : 4:2:0
Битовая глубина : 8 бит
Тип развёртки : Прогрессивная
Бит/(Пиксели*Кадры) : 0.065
Размер потока : 47,4 Мбайт (90%)
Дата пометки : UTC 2014-11-28 23:12:51

Аудио
Идентификатор : 2
Формат : AAC
Формат/Информация : Advanced Audio Codec
Профиль формата : LC
Идентификатор кодека : 40
Продолжительность : 3 м. 41 с.
Вид битрейта : Переменный
Битрейт : 192 Кбит/сек
Максимальный битрейт : 202 Кбит/сек
Каналы : 2 канала
Расположение каналов : Front: L R
Частота : 44,1 КГц
Метод сжатия : С потерями
Размер потока : 5,08 Мбайт (10%)
Заголовок : IsoMedia File Produced by Google, 5-11-2011
Дата кодирования : UTC 2014-11-28 23:12:50
Дата пометки : UTC 2014-11-28 23:12:51

Общее
Полное имя : D:ВидеоНародный Махор13. Я. Сумишевский и В. Добровинский - Вернись любовь.mp4
Формат : MPEG-4
Профиль формата : Base Media / Version 2
Идентификатор кодека : mp42
Размер файла : 51,8 Мбайт
Продолжительность : 3 м. 35 с.
Режим общего битрейта : Переменный
Общий поток : 2017 Кбит/сек
Дата кодирования : UTC 2014-05-25 15:36:11
Дата пометки : UTC 2014-05-25 15:36:11
gsst : 0
gstd : 215456
gssd : B0AFCE1ADHH1421863531311372
gshh : r20---sn-4g57kn7d.googlevideo.com

Видео
Идентификатор : 1
Формат : AVC
Формат/Информация : Advanced Video Codec
Профиль формата : High@L3.1
Параметр CABAC формата : Да
Параметр ReFrames формата : 1 кадр
Параметр GOP формата : M=1, N=60
Идентификатор кодека : avc1
Идентификатор кодека/Информация : Advanced Video Coding
Продолжительность : 3 м. 35 с.
Битрейт : 1822 Кбит/сек
Максимальный битрейт : 3500 Кбит/сек
Ширина : 1280 пикселей
Высота : 720 пикселей
Соотношение сторон : 16:9
Режим частоты кадров : Постоянный
Частота кадров : 29,970 кадров/сек
Цветовое пространство : YUV
Субдискретизация насыщенности : 4:2:0
Битовая глубина : 8 бит
Тип развёртки : Прогрессивная
Бит/(Пиксели*Кадры) : 0.066
Размер потока : 46,8 Мбайт (90%)
Дата пометки : UTC 2014-05-25 15:36:13

Аудио
Идентификатор : 2
Формат : AAC
Формат/Информация : Advanced Audio Codec
Профиль формата : LC
Идентификатор кодека : 40
Продолжительность : 3 м. 35 с.
Вид битрейта : Переменный
Битрейт : 192 Кбит/сек
Максимальный битрейт : 202 Кбит/сек
Каналы : 2 канала
Расположение каналов : Front: L R
Частота : 44,1 КГц
Метод сжатия : С потерями
Размер потока : 4,93 Мбайт (10%)
Заголовок : IsoMedia File Produced by Google, 5-11-2011
Дата кодирования : UTC 2014-05-25 15:36:13
Дата пометки : UTC 2014-05-25 15:36:13

pb.wtf



Скачать Я. Сумишевский и Народный Махор через торрент http://i63.fastpic.ru/big/2015/0122/a7/ef9e2784e332fce2d2d2560a777e1aa7.jpg Скачать, смотреть онлайн Я. Сумишевский и Народный Махор [2014 г., Музыкальное реалити-шоу, поп, ретро, шансон, WEB-Rip 720p] бесплантно в хорошем качестве Описание: "Народный Махор" - музыкальное реалити-шоу. Ярослав Сумишевский и Алёна Веденина ищут талантливых певцов в ресторанах, кафе, ... 10 10 4
Торрент: Зарегистрирован [2015-01-23 18:22] · скачан: 97 раз
Статус: √ проверено
Размер: 813 MB
Как cкачать? Как скачать Я. Сумишевский и Народный Махор через торрент | UTorrent



Последний раз редактировалось: Стpана (2015-01-23 18:27), всего редактировалось 1 раз

28-11-2019 20:33  

Отключить всю рекламу на сайте

23-01-2015 18:26 Я. Сумишевский и Народный Махор Скачать торрент  

Конешно можно найти на ютубе, но... Надеюсь модеры пропустять, исполнение суперское :curtsey: :dancee: :curtsey: :dancee:pb.wtf



24-01-2015 02:55 Я. Сумишевский и Народный Махор Скачать торрент  

классные песни-очень интересно-пишу-спасибоpb.wtf



26-03-2015 16:29 Я. Сумишевский и Народный Махор Скачать торрент  

:dancee: :dancee: :dancee:pb.wtf



    Дорогой пользователь! Огромная просьба, поблагодарите релизера, оцените раздачу и оставьте свои комментарий, если Вы скачали Я. Сумишевский и Народный Махор через торрент бесплатно!
    Комментировать посты могут только пользователи прошедшие не сложную регистрацию
    Показать сообщения:    

    Я. Сумишевский и Народный Махор через торрент
    Скачать бесплатно Я. Сумишевский и Народный Махор
    Я. Сумишевский и Народный Махор скачать торрент
    Я. Сумишевский и Народный Махор смотреть онлайн
    Cкачать фильм Я. Сумишевский и Народный Махор бесплатно
    Я. Сумишевский и Народный Махор скачать торрент в хорошем качестве
    Я. Сумишевский и Народный Махор смотреть онлайн бесплатно в хорошем качестве


    Вы не можете начинать темы
    Вы не можете отвечать на сообщения
    Вы не можете редактировать свои сообщения
    Вы не можете удалять свои сообщения
    Вы не можете голосовать в опросах
    Вы не можете прикреплять файлы к сообщениям
    Вы можете скачивать файлы