Всегда рабочее зеркало без VPN и Proxy просто перед .vidak.icu напиши любое слово или цифру, Пример http://55zq.vidak.icu

MVO

2 сезон

1 сезон

1

1 сезон

iTunes

2 сезон

13

1 сезон

Deluxe

pack

Рекомендуем

Пиратка

30

ВАЖНО

RePack

MK11

RePack

jed

RePack

fifa19

RePack

RDR2

RePack

NEED FOR SPEED™ PAYBACK

Кинопоиск HD

6 сезон

 Острые козырьки 6 сезон

Все сериалы

все сериалы на PB.wtf

RePack

FAR CRY 5

Anonymous, нам критически не хватает 5601 руб. на оплату серверов и переферии за Апрель, помоги нам пожалуйста, вся надежда только на тебя. В благодарность мы отключим тебе всю рекламу на сайте!

×
  
Magnet ссылка

Денежный поезд / Money Train (Джозеф Рубин) [1995 г., боевик, триллер, драма, комедия, криминал, HDRip, Авторский (Гаврилов)] pb.wtf

Денежный поезд через торрент pb.wtf

Размер: 1.47 GB | Добавлен: 7 лет 4 мес. назад | Торрент скачан:33 раза
Смотреть онлайн Денежный поезд | Скачать    Ребята, помогите собрать деньги на оплату серверов!!!

23-01-2015 23:35 Денежный поезд Скачать торрент  

Денежный поезд / Money Train
Год выпуска: 1995
Страна: США
Жанр: боевик, триллер, драма, комедия, криминал
Продолжительность: 110 мин. / 01:49:58
Перевод: Авторский (Гаврилов)
Субтитры: отсутствуют

Режиссер: Джозеф Рубин
Продюссер: Нил Кэнтон, Джон Питерс, Трэйси Бароне
Сценарий: Даг Ричардсон, Дэвид Локери

Бюджет: $60 000 000
Премьера в мире: 12 ноября 1995

IMDB 5.50 (28 893)



В ролях: Уэсли Снайпс, Вуди Харрельсон, Дженнифер Лопез, Роберт Блейк, Крис Купер, Джо Грифази, Скотт Сауэрс, Скипп Саддат, Винсент Лареска, Нельсон Васкес, Олег Куценко, Дмитрий Полонский, Алексей Борзунов, Владимир Конкин, Александр Новиков

Описание: Два сводных брата, белый и чернокожий, с детства мечтавшие лишь об одном — разбогатеть, задумывают дерзкое ограбление. Цель налетчиков — поезд метро, каждую ночь перевозящий миллионы по тоннелям нью — йоркской подземки. Только два обстоятельства останавливают их: они оба полицейские, а поезд находится под личной охраной их босса.Но соблазн слишком велик, да и вредному боссу, накануне уволившему их со службы, насолить очень уж хочется, и вот — в новогоднюю ночь пара новоявленных грабителей решает осуществить то, о чем они грезили всю жизнь — угнать поезд и стать миллионерами...

Качество: HDRip
Формат: AVI
Видео кодек: XviD
Аудио кодек: AC3
Видео: MPEG4, XviD, 720x304 (2.35:1), 23.976 fps, 1 451 Kbps (0.276 bit/pixel)
Аудио: AC-3, 48.0 KHz, 6 ch, 448 Kbps, CBR

Формат : AVI
Формат/Информация : Audio Video Interleave
Размер файла : 1,47 Гбайт
Продолжительность : 1 ч. 49 м.
Общий поток : 1908 Кбит/сек
Программа кодирования : VirtualDubModRus 1.5.10.2 (build 2542/release)
Библиотека кодирования : VirtualDubMod build 2542/release

Видео
Идентификатор : 0
Формат : MPEG-4 Visual
Профиль формата : Advanced Simple@L5
Параметр BVOP формата : 1
Параметр QPel формата : Нет
Параметр GMC формата : Без точки перехода
Параметр матрицы формата : Default (MPEG)
Идентификатор кодека : XVID
Идентификатор кодека/Подсказка : XviD
Продолжительность : 1 ч. 49 м.
Битрейт : 1451 Кбит/сек
Ширина : 720 пикселей
Высота : 304 пикселя
Соотношение сторон : 2,35:1
Частота кадров : 23,976 кадра/сек
Цветовое пространство : YUV
Субдискретизация насыщенности : 4:2:0
Битовая глубина : 8 бит
Тип развёртки : Прогрессивная
Метод сжатия : С потерями
Бит/(Пиксели*Кадры) : 0.276
Размер потока : 1,11 Гбайт (76%)
Библиотека кодирования : XviD 73

Аудио
Идентификатор : 1
Формат : AC-3
Формат/Информация : Audio Coding 3
Расширение режима : CM (complete main)
Параметр Endianness формата : Big
Идентификатор кодека : 2000
Продолжительность : 1 ч. 49 м.
Вид битрейта : Постоянный
Битрейт : 448 Кбит/сек
Каналы : 6 каналов
Расположение каналов : Front: L C R, Side: L R, LFE
Частота : 48,0 КГц
Битовая глубина : 16 бит
Метод сжатия : С потерями
Размер потока : 352 Мбайт (23%)
Выравнивание : Разделение по промежуткам
Продолжительность промежутка : 42 мс. (1,00 видеокадр)
Время предзагрузки промежутка : 500 мс.


Денежный поезд скачать торрент


pb.wtf



Скачать Денежный поезд через торрент https://pic1.kartinco.top/images/81/vr8l2.jpg Скачать, смотреть онлайн Денежный поезд бесплантно в хорошем качестве Описание: Два сводных брата, белый и чернокожий, с детства мечтавшие лишь об одном — разбогатеть, задумывают дерзкое ограбление. Цель ... 10 10 2
Торрент: Зарегистрирован [2015-01-23 23:35] · скачан: 33 раз
Статус: √ проверено
Размер: 1.47 GB
Как cкачать? Как скачать Денежный поезд через торрент | UTorrent

% Раздел Тема Автор DL S | L
Фильмы с авторской озвучкой [ 1.77 GB ] Денежный поезд / Money Train [1995 HDRip] 2x[AVO] killermax2013 Скачать
1 | 0
Фильмы [HD 720p, 1080p] (Хороший звук DUB, MVO) [ 5.75 GB ] Денежный поезд / Money Train [1995 BDRip 720p DUB MVO AVO] _denis_100 Скачать
1 | 0
Фильмы [HD 720p, 1080p] (Хороший звук DUB, MVO) [ 4.37 GB ] Денежный поезд / Money Train [1995 BDRip720p] Delia Скачать
1 | 0
Фильмы до 2000 г. [ 1.46 GB ] Денежный поезд / Money Train [1995 BDRip] rulya74 Скачать
1 | 0
Фильмы до 2000 г. [ 1.37 GB ] Денежный поезд / Money Train [1995 ... HDRip] кэп Скачать
1 | 0

28-11-2019 20:33  

Отключить всю рекламу на сайте

    Дорогой пользователь! Огромная просьба, поблагодарите релизера, оцените раздачу и оставьте свои комментарий, если Вы скачали Денежный поезд через торрент бесплатно!
    Комментировать посты могут только пользователи прошедшие не сложную регистрацию
    Показать сообщения:    

    Денежный поезд через торрент
    Скачать бесплатно Денежный поезд
    Денежный поезд скачать торрент
    Денежный поезд смотреть онлайн
    Cкачать фильм Денежный поезд бесплатно
    Денежный поезд скачать торрент в хорошем качестве
    Денежный поезд смотреть онлайн бесплатно в хорошем качестве


    Вы не можете начинать темы
    Вы не можете отвечать на сообщения
    Вы не можете редактировать свои сообщения
    Вы не можете удалять свои сообщения
    Вы не можете голосовать в опросах
    Вы не можете прикреплять файлы к сообщениям
    Вы можете скачивать файлы