Ссылка на приватное зеркало всего за 1$. Внимание количество ограничено!!!

iTunes

iTunes

iTunes

1

iTunes

iTunes

iTunes

iTunes

iTunes

30
pack

$ от Little Big

ВАЖНО

!!Акция!!

Alien_RageХит недели

RePack

Resident Evil 21

ИГРА 18+

pack

RePack

jed

!!Акция!!

Alien_Rage

RePack

fifa19

RePack

Assassins Creed: Odyssey

RePack

NEED FOR SPEED™ PAYBACK

4 сезон

9 сезон

Бесстыжие 9 сезон

Все сериалы

все сериалы на PB.wtf

RePack

FAR CRY 5
  

Ангар 10 / Hangar 10 (Дэниэл Симпсон / Daniel Simpson) [2014, Великобритания, ужасы, фантастика, триллер, WEB-DL 720p) VO [Xixidok] pb.wtf

Ангар 10 через торрент pb.wtf

Размер: 2.92 GB | Добавлен: 5 лет 5 мес. назад | Торрент скачан:121 раз
Скачать  

24-01-2015 02:59 Ангар 10 Скачать торрент  

Ангар 10 / Hangar 10


  • Год выпуска: 2014
  • Страна: Великобритания
  • Жанр: ужасы, фантастика, триллер
  • Продолжительность: 01:27:05
  • Перевод: Любительский (одноголосый) [Дмитрий Грачев aka ХиХиДок] - по переводу [lgt]
  • Субтитры: русские, английские
  • Режиссер: Дэниэл Симпсон / Daniel Simpson
  • В ролях:

    Роберт Кертис (Gus), Эбби Солт (Sally, слухи), Дэнни Шейлер (Jake, слухи)

  • Описание:
    Через 33 года после печально известного инцидента с НЛО в Рендлшем Форест, трое энтузиастов отправляются на поиски золота в ту же область...
  • Рейтинг:



  • Качество: WEB-DL 720p
  • Формат: :MKV
  • Видео кодек: AVC
  • Аудио кодек: AC3
  • Видео: 1280x684 (1.871), 4129 kbps, 23,976 fps, 0,197 bpp
  • Аудио №1: русский / 2.0 / 48 kHz / 192 kbps / 16 bit |ХиХиДок|
  • Аудио №2: английский / 5.1 / 48 kHz / 384 kbps / 16 bit
  • Релиз от: GEKADOL

    Код:

    General
    Unique ID                                : 209700802475402104578077235218838249924 (0x9DC2E7CDDC709334AEBC6075E1C8E1C4)
    Complete name                            : I:\Hangar.10.2014.WEB-DL.720p.CINEMANIA.mkv
    Format                                   : Matroska
    Format version                           : Version 4 / Version 2
    File size                                : 2.92 GiB
    Duration                                 : 1h 27mn
    Overall bit rate                         : 4 801 Kbps
    Movie name                               : Release Group CINEMANIA
    Encoded date                             : UTC 2015-01-18 14:17:53
    Writing application                      : mkvmerge v7.5.0 ('Glass Culture') 64bit built on Jan  4 2015 16:48:44
    Writing library                          : libebml v1.3.1 + libmatroska v1.4.2

    Video
    ID                                       : 1
    Format                                   : AVC
    Format/Info                              : Advanced Video Codec
    Format profile                           : High@L3.1
    Format settings, CABAC                   : No
    Format settings, ReFrames                : 2 frames
    Codec ID                                 : V_MPEG4/ISO/AVC
    Duration                                 : 1h 27mn
    Bit rate                                 : 4 130 Kbps
    Width                                    : 1 280 pixels
    Height                                   : 684 pixels
    Display aspect ratio                     : 1.871
    Frame rate                               : 23.976 fps
    Color space                              : YUV
    Chroma subsampling                       : 4:2:0
    Bit depth                                : 8 bits
    Scan type                                : Progressive
    Bits/(Pixel*Frame)                       : 0.197
    Stream size                              : 2.51 GiB (86%)
    Title                                    : Release Group CINEMANIA
    Language                                 : English
    Default                                  : Yes
    Forced                                   : No
    Color primaries                          : BT.709-5, BT.1361, IEC 61966-2-4, SMPTE RP177
    Transfer characteristics                 : BT.709-5, BT.1361
    Matrix coefficients                      : BT.709-5, BT.1361, IEC 61966-2-4 709, SMPTE RP177

    Audio #1
    ID                                       : 2
    Format                                   : AC-3
    Format/Info                              : Audio Coding 3
    Mode extension                           : CM (complete main)
    Codec ID                                 : A_AC3
    Duration                                 : 1h 27mn
    Bit rate mode                            : Constant
    Bit rate                                 : 192 Kbps
    Channel(s)                               : 2 channels
    Channel positions                        : Front: L R
    Sampling rate                            : 48.0 KHz
    Bit depth                                : 16 bits
    Compression mode                         : Lossy
    Stream size                              : 120 MiB (4%)
    Title                                    : Дмитрий Грачев
    Language                                 : Russian
    Default                                  : Yes
    Forced                                   : Yes

    Audio #2
    ID                                       : 3
    Format                                   : AC-3
    Format/Info                              : Audio Coding 3
    Mode extension                           : CM (complete main)
    Codec ID                                 : A_AC3
    Duration                                 : 1h 27mn
    Bit rate mode                            : Constant
    Bit rate                                 : 384 Kbps
    Channel(s)                               : 6 channels
    Channel positions                        : Front: L C R, Side: L R, LFE
    Sampling rate                            : 48.0 KHz
    Bit depth                                : 16 bits
    Compression mode                         : Lossy
    Stream size                              : 239 MiB (8%)
    Language                                 : English
    Default                                  : No
    Forced                                   : No

    Text #1
    ID                                       : 4
    Format                                   : UTF-8
    Codec ID                                 : S_TEXT/UTF8
    Codec ID/Info                            : UTF-8 Plain Text
    Language                                 : Russian
    Default                                  : Yes
    Forced                                   : Yes

    Text #2
    ID                                       : 5
    Format                                   : UTF-8
    Codec ID                                 : S_TEXT/UTF8
    Codec ID/Info                            : UTF-8 Plain Text
    Language                                 : English
    Default                                  : No
    Forced                                   : No

    Menu
    00:00:00.000                             : en:1
    00:10:42.000                             : en:2
    00:20:31.000                             : en:3
    00:30:10.000                             : en:4
    00:39:27.000                             : en:5
    00:50:02.000                             : en:6
    00:59:37.000                             : en:7
    01:10:02.000                             : en:8
    01:19:46.000                             : en:9
    01:25:12.000                             : en:10




    Скриншоты:



    pb.wtf



  • Скачать Ангар 10 через торрент http://i63.fastpic.ru/big/2015/0124/2c/72ba23e15b2c2eba114525426b78582c.jpg Скачать фильм Ангар 10 через торрент бесплантно в хорошем качестве Описание: Через 33 года после печально известного инцидента с НЛО в Рендлшем Форест, трое энтузиастов отправляются на поиски золота в ту же ... 9 10 6
    Торрент: Зарегистрирован [2015-01-24 02:59] · скачан: 121 раз
    Статус: T временная
    Размер: 2.92 GB
    Как cкачать? Как скачать Ангар 10 через торрент | qTorrent

    % Раздел Тема Автор DL S | L
    Фильмы [HD 720p, 1080p] (Хороший звук DUB, MVO) [ 8.25 GB ] Ангар 18 / Hangar 18 [1980 биография BDRip 1080p by keeper.52] DUB + DVO + AVO + Original keeper.52 Скачать
    2 | 0
    Фильмы (Blu-ray, BD-Remux, HDDVD) [ 19.49 GB ] Ангар 18 / Hangar 18 [1980 биография BDRemux 1080p by keeper.52] DUB + DVO + AVO + Original keeper.52 Скачать
    2 | 0
    T Фильмы 2014 (Звук TS, Cam, VO, DVO) [ 1.49 GB ] Ангар 10 / Hangar 10 [2014 WEB-DLRip) VO [Xixidok] GEKADOL Скачать
    1 | 0

    28-11-2019 20:33  

    Отключить всю рекламу на сайте

      Дорогой пользователь! Огромная просьба, поблагодарите релизера, оцените раздачу и оставьте свои комментарий, если Вы скачали Ангар 10 через торрент бесплатно! Внесите свою лепту в развитие PiratBit!
      Комментировать посты могут только пользователи прошедшие не сложную регистрацию
      Показать сообщения:    

      Ангар 10 через торрент
      Скачать бесплатно Ангар 10
      Ангар 10 скачать торрент
      Ангар 10 смотреть онлайн
      Cкачать фильм Ангар 10 бесплатно
      Ангар 10 скачать торрент в хорошем качестве
      Ангар 10 смотреть онлайн бесплатно в хорошем качестве


      Вы не можете начинать темы
      Вы не можете отвечать на сообщения
      Вы не можете редактировать свои сообщения
      Вы не можете удалять свои сообщения
      Вы не можете голосовать в опросах
      Вы не можете прикреплять файлы к сообщениям
      Вы можете скачивать файлы