Присоединяйтесь к нам в Telegram!, здесь всегда актуальный адрес сайта, оперативная поддержка и многое другое!!

>

5.9

iTunes

7.4

iTunes

9.4

1 сезон

1

7.4

2 сезон

7.2

iTunes

7.3

1 сезон

13

6.1

iTunes

8.3

GOG

30

ULTIMATE

pack

9.9

Лицензия

ВАЖНО

ИГРА 18+

pack

7.3

RePack

MK11

7.7

RePack

jed

7.8

RePack

fifa19

8.5

RePack

RDR2

RePack

NEED FOR SPEED™ PAYBACK

5 сезон

9 сезон

Бесстыжие 9 сезон

Все сериалы

все сериалы на PB.wtf

RePack

FAR CRY 5

Anonymous, добрый вечер, мы катастрофически не успеваем собрать деньги на оплату серверов, помогите нам пожалуйста 5,10,15р., для нас важна любая помощь . В качестве благодарности мы отключим Вам всю рекламу на сайте (укажите свой ник в строку Ваше имя)!

×
  
Magnet ссылка

Голые файлы / Naked Files 3 [2015 г., Music clips, erotic, WEB-DLRip 720p, Оригинал] pb.wtf

Голые файлы через торрент pb.wtf

Размер: 2.49 GB | Добавлен: 6 лет 10 мес. назад | Торрент скачан:562 раза
Смотреть онлайн Голые файлы | Скачать    Ребята, помогите собрать деньги на оплату серверов!!!

24-01-2015 09:24 Голые файлы Скачать торрент  

Голые файлы / Naked Files 3
Год выпуска: 2015
Страна: All World
Жанр: Music clips, erotic
Продолжительность: 01:57:25
Перевод: Оригинал

Описание:

Откровенные кадры, танцы, стриптиз и так далее.... (всё под музыку...) 3 часть.
01. Amelie - Golden Stairway [07:27]
02. Nadia Ruslanova - Jazz Par Moi [02:14]
03. Scarlet East - Naked Bacon II [03:32]
04. Charlie Kristine - Afternoon Sun [04:29]
05. Painters - Part 2 [03:34]
06. August Ames [03:24]
07. METALEPSIS [03:31]
08. Nika Rope [02:16]
09. Карина - Крым [03:02]
10. Marika Vitale - B-side [02:09]
11. Eugenia Diordiychuk [03:54]
12. Amira Hayes - Double Blue Passion [06:26]
13. Elle Beth [02:05]
14. In the Doorway [04:00]
15. BigTitty Japanese Edition [04:30]
16. Fiat Frost - Blaze [03:00]
17. Wendy Unwinds [03:21]
18. Annalee Belle [03:39]
19. The Bountiful Bosoms of Milena Velba [12:45]
20. Emely - Nymphet [03:48]
21. Nicole Neal - Ready For It [04:00]
22. Emile - Geena Rose [03:59]
23. Линари - Happy Birthday [10:00]
24. Playmate of the Month [12:39]
25. Seduction from Exotic Beauty [03:31]
Качество: WEB-DLRip 720p
Формат: MP4
Видео кодек: AVC
Аудио кодек: AAC
Видео: AVC, 360x640, 1280x720, 1920x960, 1920x1080 (16:9), 29.970 fps, 2 500 Kbps (0.091 bit/pixel)
Аудио#1: AAC LC, 44.0-48.0 KHz, 2 ch, 106-256 Kbps, VBR
Релиз от: terras
скриншот   скриншот   скриншот   скриншот   скриншот   скриншот  
скриншот   скриншот   скриншот   скриншот   скриншот   скриншот  

Общее
Полное имя : D:\Архив\Клипы\Naked Files 3 (2015)\03. Scarlet East - Naked Bacon II.mp4
Формат : MPEG-4
Профиль формата : Base Media / Version 2
Идентификатор кодека : mp42
Размер файла : 67,3 Мбайт
Продолжительность : 3 м. 32 с.
Режим общего битрейта : Переменный
Общий поток : 2651 Кбит/сек
Дата кодирования : UTC 2015-01-22 06:04:18
Дата пометки : UTC 2015-01-22 06:04:18

Видео
Идентификатор : 1
Формат : AVC
Формат/Информация : Advanced Video Codec
Профиль формата : High@L3.1
Параметр CABAC формата : Да
Параметр ReFrames формата : 4 кадра
Идентификатор кодека : avc1
Идентификатор кодека/Информация : Advanced Video Coding
Продолжительность : 3 м. 32 с.
Битрейт : 2500 Кбит/сек
Ширина : 1280 пикселей
Высота : 720 пикселей
Соотношение сторон : 16:9
Режим частоты кадров : Постоянный
Частота кадров : 29,970 кадров/сек
Цветовое пространство : YUV
Субдискретизация насыщенности : 4:2:0
Битовая глубина : 8 бит
Тип развёртки : Прогрессивная
Бит/(Пиксели*Кадры) : 0.091
Размер потока : 63,1 Мбайт (94%)
Библиотека кодирования : x264 core 142 r11 24e4fed
Настройки программы : cabac=1 / ref=3 / deblock=1:0:0 / analyse=0x3:0x113 / me=hex / subme=7 / psy=1 / psy_rd=1.00:0.00 / mixed_ref=1 / me_range=16 / chroma_me=1 / trellis=1 / 8x8dct=1 / cqm=0 / deadzone=21,11 / fast_pskip=1 / chroma_qp_offset=-2 / threads=48 / lookahead_threads=5 / sliced_threads=0 / nr=0 / decimate=1 / interlaced=0 / bluray_compat=0 / stitchable=1 / constrained_intra=0 / bframes=3 / b_pyramid=2 / b_adapt=1 / b_bias=0 / direct=1 / weightb=1 / open_gop=0 / weightp=2 / keyint=infinite / keyint_min=29 / scenecut=40 / intra_refresh=0 / rc_lookahead=40 / rc=2pass / mbtree=1 / bitrate=2500 / ratetol=1.0 / qcomp=0.60 / qpmin=5 / qpmax=69 / qpstep=4 / cplxblur=20.0 / qblur=0.5 / vbv_maxrate=2750 / vbv_bufsize=7500 / nal_hrd=none / filler=0 / ip_ratio=1.40 / aq=1:1.00
Дата кодирования : UTC 2015-01-22 06:04:18
Дата пометки : UTC 2015-01-22 06:04:18

Аудио
Идентификатор : 2
Формат : AAC
Формат/Информация : Advanced Audio Codec
Профиль формата : LC
Идентификатор кодека : 40
Продолжительность : 3 м. 32 с.
Вид битрейта : Переменный
Битрейт : 160 Кбит/сек
Каналы : 2 канала
Расположение каналов : Front: L R
Частота : 48,0 КГц
Метод сжатия : С потерями
Размер потока : 4,06 Мбайт (6%)
Дата кодирования : UTC 2015-01-22 06:04:18
Дата пометки : UTC 2015-01-22 06:04:18

Общее
Полное имя : D:\Архив\Клипы\Naked Files 3 (2015)\15. BigTitty Japanese Edition.mp4
Формат : MPEG-4
Профиль формата : Base Media / Version 2
Идентификатор кодека : mp42
Размер файла : 451 Мбайт
Продолжительность : 4 м. 30 с.
Режим общего битрейта : Переменный
Общий поток : 14,0 Мбит/сек
Дата кодирования : UTC 2014-12-15 20:46:26
Дата пометки : UTC 2014-12-15 20:46:26

Видео
Идентификатор : 2
Формат : AVC
Формат/Информация : Advanced Video Codec
Профиль формата : High@L4.0
Параметр CABAC формата : Да
Параметр ReFrames формата : 2 кадра
Параметр GOP формата : M=2, N=15
Идентификатор кодека : avc1
Идентификатор кодека/Информация : Advanced Video Coding
Продолжительность : 4 м. 30 с.
Вид битрейта : Переменный
Битрейт : 13,9 Мбит/сек
Максимальный битрейт : 16,0 Мбит/сек
Ширина : 1920 пикселей
Высота : 1080 пикселей
Соотношение сторон : 16:9
Режим частоты кадров : Постоянный
Частота кадров : 29,970 кадров/сек
Цветовое пространство : YUV
Субдискретизация насыщенности : 4:2:0
Битовая глубина : 8 бит
Тип развёртки : Прогрессивная
Бит/(Пиксели*Кадры) : 0.223
Размер потока : 447 Мбайт (99%)
Язык : English
Дата кодирования : UTC 2014-12-15 20:46:26
Дата пометки : UTC 2014-12-15 20:46:26

Аудио
Идентификатор : 1
Формат : AAC
Формат/Информация : Advanced Audio Codec
Профиль формата : LC
Идентификатор кодека : 40
Продолжительность : 4 м. 30 с.
Вид битрейта : Постоянный
Битрейт : 128 Кбит/сек
Каналы : 2 канала
Расположение каналов : Front: L R
Частота : 48,0 КГц
Метод сжатия : С потерями
Размер потока : 4,12 Мбайт (1%)
Язык : English
Дата кодирования : UTC 2014-12-15 20:46:26
Дата пометки : UTC 2014-12-15 20:46:26

pb.wtf



Скачать Голые файлы через торрент https://pic1.kartinco.top/images/81/83veu.jpg Скачать, смотреть онлайн Голые файлы бесплантно в хорошем качестве Описание: Откровенные кадры, танцы, стриптиз и так далее.... (всё под музыку...) 3 часть. Amelie - Golden Stairway [07:27] Nadia ... 9.8 10 30
Info! Серебряная раздача, засчитывается только 50% скачанного.
Торрент: Зарегистрирован [2015-01-24 09:24] · скачан: 562 раз
Статус: √ проверено
Размер: 2.49 GB
Как cкачать? Как скачать Голые файлы через торрент | UTorrent

28-11-2019 20:33  

Отключить всю рекламу на сайте

    Дорогой пользователь! Огромная просьба, поблагодарите релизера, оцените раздачу и оставьте свои комментарий, если Вы скачали Голые файлы через торрент бесплатно!
    Комментировать посты могут только пользователи прошедшие не сложную регистрацию
    Показать сообщения:    

    Голые файлы через торрент
    Скачать бесплатно Голые файлы
    Голые файлы скачать торрент
    Голые файлы смотреть онлайн
    Cкачать фильм Голые файлы бесплатно
    Голые файлы скачать торрент в хорошем качестве
    Голые файлы смотреть онлайн бесплатно в хорошем качестве


    Вы не можете начинать темы
    Вы не можете отвечать на сообщения
    Вы не можете редактировать свои сообщения
    Вы не можете удалять свои сообщения
    Вы не можете голосовать в опросах
    Вы не можете прикреплять файлы к сообщениям
    Вы можете скачивать файлы