Всегда рабочее зеркало без VPN и Proxy просто перед .vidak.icu напиши любое слово или цифру, Пример http://pnfg.vidak.icu

MVO

2 сезон

1 сезон

1

1 сезон

iTunes

2 сезон

13

1 сезон

Deluxe

pack

Рекомендуем

Пиратка

30

ВАЖНО

RePack

MK11

RePack

jed

RePack

fifa19

RePack

RDR2

RePack

NEED FOR SPEED™ PAYBACK

Кинопоиск HD

6 сезон

 Острые козырьки 6 сезон

Все сериалы

все сериалы на PB.wtf

RePack

FAR CRY 5

Anonymous, нам критически не хватает 5601 руб. на оплату серверов и переферии за Апрель, помоги нам пожалуйста, вся надежда только на тебя. В благодарность мы отключим тебе всю рекламу на сайте!

×
  
Magnet ссылка

Занесло / Redirected (Эмилис Веливис ) [2014, боевик, триллер, комедия, BDRip 720p] 2xAVO, MVO pb.wtf

Занесло через торрент pb.wtf

Размер: 6.96 GB | Добавлен: 7 лет 3 мес. назад | Торрент скачан:482 раза
Смотреть онлайн Занесло | Скачать    Ребята, помогите собрать деньги на оплату серверов!!!

24-01-2015 10:29 Занесло Скачать торрент  

Занесло / Redirected


Год выпуска: 2014
Страна: Литва, Великобритания
Жанр: боевик, триллер, комедия, криминал
Продолжительность: 01:39:08
Перевод: Авторский (одноголосый), Любительский многоголосый

Субтитры: русские (Doctor Joker), русские (Russian)
Режиссер: Эмилис Веливис
В ролях: Винни Джонс , Скот Уильямс , Гил Дарнелл , Оливер Джексон , Энтони Страхан , Андрюс Жюраускас , Витаутас Шапранаускас , Артур Смольянинов , Вита Сяусюнайте , Моника , Дэниэл-Джон Уильямс , Дэниэл Неме
Описание::
Картина повествует о необычайных приключениях в Литве четырёх англичан - Майкла, Джонни, Бена и Тима. После удачного налёта в Лондоне на нелегальное казино, «славная четвёрка» садится в самолет, летящий в Малайзию. Кажется, все идёт по плану. Но... Никто не мог предусмотреть проделок вулкана Эйяфьядлайёкюдля, извержение которого вынудило самолет с англичанами сесть в Вильнюсе. Мало того, помимо местных разборок и приключений на все части тела, друзьям приходится спасаться от жаждущего мести владельца ограбленного казино.

Качество: BDRip 720p (исходник Blu-ray)
Контейнер (Расширение): MKV
Видео кодек: AVC
Аудио кодек: AC3
Видео: 1280x536 (2.40:1), 7539 Кбит/сек, 23,976 кадр/сек, 0,458 Бит/[Пиксели*Кадры]
Аудио №1: русский / AC3 / 5.1 / 48 kHz / 640 kbps / |Авторский, А.Матвеев (Doctor Joker)|
Аудио №2: русский / AC3 / 5.1 / 48 kHz / 640 kbps / |Авторский, Е.Гаевский|
Аудио №3: русский / AC3 / 5.1 / 48 kHz / 384 kbps / |Любительский многоголосый (Paradox)|
Аудио №4: английский / AC3 / 5.1 / 48 kHz / 640 kbps /
Навигация по главам(Чаптеры): естьАвтор рипа: Сообщество:

Код:

Format                                   : Matroska
Format version                           : Version 2
File size                                : 6.96 GiB
Duration                                 : 1h 39mn
Overall bit rate                         : 10.0 Mbps
Movie name                               : Zaneslo.(2014).BDRip.720p.[denis100]
Encoded date                             : UTC 2015-01-24 09:26:21
Writing application                      : mkvmerge v5.8.0 ('No Sleep / Pillow') built on Sep  2 2012 15:37:04
Writing library                          : libebml v1.2.3 + libmatroska v1.3.0

Video
ID                                       : 1
Format                                   : AVC
Format/Info                              : Advanced Video Codec
Format profile                           : High@L4.1
Format settings, CABAC                   : Yes
Format settings, ReFrames                : 11 frames
Codec ID                                 : V_MPEG4/ISO/AVC
Duration                                 : 1h 39mn
Bit rate                                 : 7 540 Kbps
Width                                    : 1 280 pixels
Height                                   : 536 pixels
Display aspect ratio                     : 2.40:1
Frame rate                               : 23.976 fps
Color space                              : YUV
Chroma subsampling                       : 4:2:0
Bit depth                                : 8 bits
Scan type                                : Progressive
Bits/(Pixel*Frame)                       : 0.458
Stream size                              : 5.22 GiB (75%)
Title                                    : Zaneslo.(2014).BDRip.720p.[denis100]
Writing library                          : x264 core 142 r2491 24e4fed
Encoding settings                        : cabac=1 / ref=11 / deblock=1:-3:-3 / analyse=0x3:0x133 / me=umh / subme=11 / psy=1 / psy_rd=1.00:0.10 / mixed_ref=1 / me_range=32 / chroma_me=1 / trellis=2 / 8x8dct=1 / cqm=0 / deadzone=21,11 / fast_pskip=0 / chroma_qp_offset=-3 / threads=6 / lookahead_threads=1 / sliced_threads=0 / nr=0 / decimate=1 / interlaced=0 / bluray_compat=0 / constrained_intra=0 / bframes=12 / b_pyramid=2 / b_adapt=2 / b_bias=0 / direct=3 / weightb=1 / open_gop=0 / weightp=2 / keyint=240 / keyint_min=23 / scenecut=40 / intra_refresh=0 / rc=crf / mbtree=0 / crf=17.0 / qcomp=0.60 / qpmin=0 / qpmax=69 / qpstep=4 / ip_ratio=1.40 / pb_ratio=1.30 / aq=1:0.90
Language                                 : English
Default                                  : Yes
Forced                                   : No

Audio #1
ID                                       : 2
Format                                   : AC-3
Format/Info                              : Audio Coding 3
Mode extension                           : CM (complete main)
Codec ID                                 : A_AC3
Duration                                 : 1h 39mn
Bit rate mode                            : Constant
Bit rate                                 : 640 Kbps
Channel(s)                               : 6 channels
Channel positions                        : Front: L C R, Side: L R, LFE
Sampling rate                            : 48.0 KHz
Bit depth                                : 16 bits
Compression mode                         : Lossy
Stream size                              : 454 MiB (6%)
Title                                    : А.Матвеев (Doctor Joker)
Language                                 : Russian
Default                                  : Yes
Forced                                   : No

Audio #2
ID                                       : 3
Format                                   : AC-3
Format/Info                              : Audio Coding 3
Mode extension                           : CM (complete main)
Codec ID                                 : A_AC3
Duration                                 : 1h 39mn
Bit rate mode                            : Constant
Bit rate                                 : 640 Kbps
Channel(s)                               : 6 channels
Channel positions                        : Front: L C R, Side: L R, LFE
Sampling rate                            : 48.0 KHz
Bit depth                                : 16 bits
Compression mode                         : Lossy
Stream size                              : 454 MiB (6%)
Title                                    : Авторский,  Е.Гаевский
Language                                 : Russian
Default                                  : No
Forced                                   : No

Audio #3
ID                                       : 4
Format                                   : AC-3
Format/Info                              : Audio Coding 3
Mode extension                           : CM (complete main)
Codec ID                                 : A_AC3
Duration                                 : 1h 39mn
Bit rate mode                            : Constant
Bit rate                                 : 384 Kbps
Channel(s)                               : 6 channels
Channel positions                        : Front: L C R, Side: L R, LFE
Sampling rate                            : 48.0 KHz
Bit depth                                : 16 bits
Compression mode                         : Lossy
Stream size                              : 272 MiB (4%)
Title                                    : Многоголосый (закадровый) ["студия Paradox"]
Language                                 : Russian
Default                                  : No
Forced                                   : No

Audio #4
ID                                       : 5
Format                                   : AC-3
Format/Info                              : Audio Coding 3
Mode extension                           : CM (complete main)
Codec ID                                 : A_AC3
Duration                                 : 1h 39mn
Bit rate mode                            : Constant
Bit rate                                 : 640 Kbps
Channel(s)                               : 6 channels
Channel positions                        : Front: L C R, Side: L R, LFE
Sampling rate                            : 48.0 KHz
Bit depth                                : 16 bits
Compression mode                         : Lossy
Stream size                              : 454 MiB (6%)
Title                                    : English
Language                                 : English
Default                                  : No
Forced                                   : No

Text #1
ID                                       : 6
Format                                   : UTF-8
Codec ID                                 : S_TEXT/UTF8
Codec ID/Info                            : UTF-8 Plain Text
Title                                    : Doctor Joker
Language                                 : Russian
Default                                  : No
Forced                                   : No

Text #2
ID                                       : 7
Format                                   : UTF-8
Codec ID                                 : S_TEXT/UTF8
Codec ID/Info                            : UTF-8 Plain Text
Title                                    : Russian
Language                                 : Russian
Default                                  : No
Forced                                   : No

Menu
00:00:00.000                             : en:00:00:00.000
00:06:19.127                             : en:00:06:19.127
00:16:40.749                             : en:00:16:40.749
00:33:58.076                             : en:00:33:58.076
00:43:34.445                             : en:00:43:34.445
00:51:34.215                             : en:00:51:34.215
01:05:25.211                             : en:01:05:25.211
01:19:35.520                             : en:01:19:35.520
01:33:57.840                             : en:01:33:57.840

x264 [info]: frame I:1918 Avg QP:15.95 size:114869
x264 [info]: frame P:29716 Avg QP:17.57 size: 66338
x264 [info]: frame B:110997 Avg QP:20.15 size: 32084
pb.wtf



Скачать Занесло через торрент http://i63.fastpic.ru/big/2015/0124/f0/d5c54d5b89277f316d41b52be38726f0.png Скачать, смотреть онлайн Занесло бесплантно в хорошем качестве Описание::Картина повествует о необычайных приключениях в Литве четырёх англичан - Майкла, Джонни, Бена и Тима. После удачного налёта в ... 10 10 7
Торрент: Зарегистрирован [2015-01-24 10:29] · скачан: 482 раз
Статус: √ проверено
Размер: 6.96 GB
Как cкачать? Как скачать Занесло через торрент | UTorrent

28-11-2019 20:33  

Отключить всю рекламу на сайте

25-01-2015 19:22 Занесло Скачать торрент  

поржать можноpb.wtf



09-03-2015 09:15 Занесло Скачать торрент  

спасибо, классный экшн, советую любителям ..pb.wtf



    Дорогой пользователь! Огромная просьба, поблагодарите релизера, оцените раздачу и оставьте свои комментарий, если Вы скачали Занесло через торрент бесплатно!
    Комментировать посты могут только пользователи прошедшие не сложную регистрацию
    Показать сообщения:    

    Занесло через торрент
    Скачать бесплатно Занесло
    Занесло скачать торрент
    Занесло смотреть онлайн
    Cкачать фильм Занесло бесплатно
    Занесло скачать торрент в хорошем качестве
    Занесло смотреть онлайн бесплатно в хорошем качестве


    Вы не можете начинать темы
    Вы не можете отвечать на сообщения
    Вы не можете редактировать свои сообщения
    Вы не можете удалять свои сообщения
    Вы не можете голосовать в опросах
    Вы не можете прикреплять файлы к сообщениям
    Вы можете скачивать файлы