Ссылка на приватное зеркало нашего сайта всего за 1$. Внимание количество ограничено!!!

2 сезон

iTunes

1 сезон

1

iTunes

iTunes

iTunes

1 сезон

RePack

30

ИГРА 18+

pack

ВАЖНО

!!Акция!!

Alien_RageХит недели

RePack

MK11
pack

Забери бонус

RePack

jed

!!Акция!!

Alien_Rage

RePack

fifa19

RePack

Assassins Creed: Odyssey

RePack

NEED FOR SPEED™ PAYBACK

4 сезон

9 сезон

Бесстыжие 9 сезон

Все сериалы

все сериалы на PB.wtf

RePack

FAR CRY 5
  

Барс и Лялька / Cерии: 1-2 из 2 (Николай Щербаков) [2014 г., детектив, IPTVRip] pb.wtf

Барс и Лялька через торрент pb.wtf

Размер: 1.07 GB | Добавлен: 5 лет 8 мес. назад | Торрент скачан:669 раз
Скачать  

24-01-2015 13:22 Барс и Лялька Скачать торрент  

Барс и ЛялькаГод выпуска: 2014
Страна: Россия НТВ-Кино
Жанр: детектив
Продолжительность: 2 x ~ 00:43:00
Субтитры: Иврит

Режиссер: Николай Щербаков
Продюссер: Александр Черняев
Сценарий: Николай Щербаков

Премьера в мире: 23 января 2015 В ролях: Владимир Епифанцев, Дмитрий Шевченко, Татьяна Казючиц, Евгений Березовский, Иван Шибанов, Михаил Павлик, Данила Якушев, Елена Бирюкова

Описание: Сюжет сериала поведает историю одной девушки Арины, она пишет исторические романы. Но в один момент у нее наступает какая-то черная полоса: она расстается со своим парнем, хозяйка квартиры требует съехать в ближайшие дни, ее книгу не хочет брать ни одно издательство. В таком состоянии любой человек бы сдался, но только не она. Тут ей издатель предлагает написать роман о «Барсе», который был бывшим офицером и спецназовцем. Тема ей не по душе, ведь она пишет совсем в другом стиле, но на что не пойдешь ради денег, и она соглашается написать эту книгу. Ей приходится отправиться к нему в деревню. Ступив на порог его дома, она сразу поняла, что этот человек не рад ее визиту, он груб с ней, не гостеприимен, и по не известным причинам дал ей прозвище «Лялька». Не всем нравится, когда вторгаются в их жизнь, таков же и «Барс». На жизнь он зарабатывает тем, что копает выгребные ямы для местных жителей. Арина все не может понять, почему этот неотесанный мужик заинтересовал ее издательство, что в нем такого? Но, не зная почему, этот грубиян заинтересовал ее, и тут начинаются различные истории, в которые попадают герои картины. Что же будет дальше с ними, зритель сможет узнать только во время просмотра сериала.

Качество: IPTVRip
Формат: AVI
Видео кодек: XviD
Аудио кодек: MP3
Видео: Xvid 720x400, 25fps, 1499kbps
Аудио: MP3, 48000Hz, stereo, 128kbps
Релиз от: zeka80
Скриншоты:
скриншот  скриншот  скриншот  скриншот  скриншот  




General
Complete name : E:\01 02 2013\Bars.i.Ljalka.IPTVRip\Bars.i.Ljalka.01.IPTVRip.avi
Format : AVI
Format/Info : Audio Video Interleave
File size : 555 MiB
Duration : 47mn 22s
Overall bit rate : 1 638 Kbps
Writing application : VirtualDubMod 1.5.10.3| (build 2550/release)
Writing library : VirtualDubMod build 2550/release

Video
ID : 0
Format : MPEG-4 Visual
Format profile : Advanced Simple@L5
Format settings, BVOP : 2
Format settings, QPel : No
Format settings, GMC : No warppoints
Format settings, Matrix : Default (H.263)
Codec ID : XVID
Codec ID/Hint : XviD
Duration : 47mn 22s
Bit rate : 1 500 Kbps
Width : 720 pixels
Height : 400 pixels
Display aspect ratio : 16:9
Frame rate : 25.000 fps
Color space : YUV
Chroma subsampling : 4:2:0
Bit depth : 8 bits
Scan type : Progressive
Compression mode : Lossy
Bits/(Pixel*Frame) : 0.208
Stream size : 508 MiB (92%)
Writing library : XviD 1.2.1 (UTC 2008-12-04)

Audio
ID : 1
Format : MPEG Audio
Format version : Version 1
Format profile : Layer 3
Mode : Joint stereo
Mode extension : MS Stereo
Codec ID : 55
Codec ID/Hint : MP3
Duration : 47mn 22s
Bit rate mode : Constant
Bit rate : 128 Kbps
Channel(s) : 2 channels
Sampling rate : 48.0 KHz
Compression mode : Lossy
Stream size : 43.4 MiB (8%)
Alignment : Aligned on interleaves
Interleave, duration : 40 ms (1.00 video frame)
Interleave, preload duration : 504 ms
Writing library : LAME3.99r
Encoding settings : -m j -V 4 -q 9 -lowpass 17 -b 128

Внимание! Раздача ведётся путём добавления новых серий; при каждом добавлении создаётся новый торрент-файл. Чтобы начать дозакачку новой серии, пользователям необходимо сделать следующее:
(1) остановить скачивание,
(2) удалить старый торрент-файл у себя из клиента (старые серии удалять не надо),
(3) скачать новый торрент-файл и запустить его у себя в клиенте вместо старого, при этом указать клиенту путь в старую папку куда и должно происходить скачивание новых серий.
Ваш клиент при этом должен произвести хеширование (проверку) старой папки (если не производит сам - помогите ему сделать это), и будет докачивать только те серии которых у вас ещё нет. Старые серии при этом не удаляются, а продолжают раздаваться!
Eсли вы уже удалили старые серии, то предотвратить повторную закачку старых серий можно, отжав галочку в соответствующих местах при запуске нового торрента.
pb.wtf



Скачать Барс и Лялька через торрент http://pic.kartinco.top/images/8/kow2r.jpg Скачать фильм Барс и Лялька через торрент бесплантно в хорошем качестве Описание: Сюжет сериала поведает историю одной девушки Арины, она пишет исторические романы. Но в один момент у нее наступает какая-то ... 9.7 10 13
Торрент: Зарегистрирован [2015-01-24 13:22] · скачан: 669 раз
Статус: √ проверено
Размер: 1.07 GB
Как cкачать? Как скачать Барс и Лялька через торрент | qTorrent



Последний раз редактировалось: lug30 (2015-01-25 18:15), всего редактировалось 1 раз

28-11-2019 20:33  

Отключить всю рекламу на сайте

25-01-2015 10:29 Барс и Лялька Скачать торрент  

не короткий такой трейлер - 47 минут)))pb.wtf



25-01-2015 18:17 Барс и Лялька Скачать торрент  

tamburetko писал(а):

не короткий такой трейлер - 47 минут)))

Трейлера на ютубе не было,только первая серияpb.wtf



11-02-2015 22:22 Барс и Лялька Скачать торрент  

прекрасные актеры, играют отлично, но фильм...pb.wtf



    Дорогой пользователь! Огромная просьба, поблагодарите релизера, оцените раздачу и оставьте свои комментарий, если Вы скачали Барс и Лялька через торрент бесплатно! Внесите свою лепту в развитие PiratBit!
    Комментировать посты могут только пользователи прошедшие не сложную регистрацию
    Показать сообщения:    

    Барс и Лялька через торрент
    Скачать бесплатно Барс и Лялька
    Барс и Лялька скачать торрент
    Барс и Лялька смотреть онлайн
    Cкачать фильм Барс и Лялька бесплатно
    Барс и Лялька скачать торрент в хорошем качестве
    Барс и Лялька смотреть онлайн бесплатно в хорошем качестве


    Вы не можете начинать темы
    Вы не можете отвечать на сообщения
    Вы не можете редактировать свои сообщения
    Вы не можете удалять свои сообщения
    Вы не можете голосовать в опросах
    Вы не можете прикреплять файлы к сообщениям
    Вы можете скачивать файлы