Death Stranding+DLC+АВТОАКТИВАЦИЯ

iTunes

iTunes

iTunes

1

iTunes

iTunes

iTunes

iTunes

iTunes

30
pack

$ от Little Big

ВАЖНО

!!Акция!!

Alien_RageХит недели

RePack

Resident Evil 21

ИГРА 18+

pack

RePack

jed

!!Акция!!

Alien_Rage

RePack

fifa19

RePack

Assassins Creed: Odyssey

RePack

NEED FOR SPEED™ PAYBACK

4 сезон

9 сезон

Бесстыжие 9 сезон

Все сериалы

все сериалы на PB.wtf

RePack

FAR CRY 5
  

Гензель против Гретель / Hansel Vs. Gretel (Бен Демари ) [2015, ужасы, WEB-DL 720p, Любительский (одноголосый) [datynet] pb.wtf

Гензель против Гретель через торрент pb.wtf

Размер: 2.8 GB | Добавлен: 5 лет 5 мес. назад | Торрент скачан:142 раза
Скачать  

24-01-2015 16:45 Гензель против Гретель Скачать торрент  


Гензель против Гретель / Hansel Vs. Gretel
«Blood Runs Thick»

Год выпуска:2015
Страна: США
Жанр:ужасы
Продолжительность:01:26:30
Перевод:Любительский одноголосый [Антон Агапов aka datynet] - по переводу[МЕГАПЫХАРЬ]
Субтитры: русские, английские,
Режиссер:Бен Демари

  • В ролях:

    Брент Лайдик (Hansel), Лили Баросс (Gretel), Акилла Золл (Willy), Jhey Castles (Cthonia), Nanrisa Lee (Kikimora), Riley Murphy (Jacob), Джереми Инман (Angry Patron), Adinett Nsabimana (Morai), Мария Олсен (Crone), Кэрол Станционе (Bag Lady), Фаун Стоун (Officer Castiniera)
  • Описание:
    Когда Гретель попадает под "темное заклинание" и организует шабаш ведьм, Гензель должны найти в себе мужество бороться с своей сестрой-близнецом и зловещими силами, контролирующие ее.

  • Мировая премьера:20 января 2015

    Качество: WEB-DL 720p
    Формат:MKV
    Видео кодек: AVC
    Аудио кодек:AC3
    Видео: AVC, 1280x720 (16:9), 3960 kbps, 23,976 fps, 0,179 bpp
    Аудио №1: русский / AC3 / 2.0 / 48 kHz / 192 kbps / 16 bit ||
    Аудио №2: английский / AC3 / 5.1 / 48 kHz / 384 kbps / 16 bit
    Навигация по главам: есть


    Код:

    General
    Unique ID                                : 211504143751383810535816506744904400751 (0x9F1E3764C36D47F58A6F7BFE65F8BF6F)
    Complete name                            : D:\Торенты\Hansel.Vs.Gretel.2015.WEB-DL.720p.CINEMANIA.mkv
    Format                                   : Matroska
    Format version                           : Version 4 / Version 2
    File size                                : 2.80 GiB
    Duration                                 : 1h 26mn
    Overall bit rate                         : 4 629 Kbps
    Movie name                               : Release Group CINEMANIA
    Encoded date                             : UTC 2015-01-22 14:32:27
    Writing application                      : mkvmerge v7.5.0 ('Glass Culture') 64bit built on Jan  4 2015 16:48:44
    Writing library                          : libebml v1.3.1 + libmatroska v1.4.2

    Video
    ID                                       : 1
    Format                                   : AVC
    Format/Info                              : Advanced Video Codec
    Format profile                           : High@L3.1
    Format settings, CABAC                   : No
    Format settings, ReFrames                : 2 frames
    Codec ID                                 : V_MPEG4/ISO/AVC
    Duration                                 : 1h 26mn
    Bit rate                                 : 3 961 Kbps
    Width                                    : 1 280 pixels
    Height                                   : 720 pixels
    Display aspect ratio                     : 16:9
    Frame rate                               : 23.976 fps
    Color space                              : YUV
    Chroma subsampling                       : 4:2:0
    Bit depth                                : 8 bits
    Scan type                                : Progressive
    Bits/(Pixel*Frame)                       : 0.179
    Stream size                              : 2.39 GiB (86%)
    Title                                    : Release Group CINEMANIA
    Language                                 : English
    Default                                  : Yes
    Forced                                   : No
    Color primaries                          : BT.709-5, BT.1361, IEC 61966-2-4, SMPTE RP177
    Transfer characteristics                 : BT.709-5, BT.1361
    Matrix coefficients                      : BT.709-5, BT.1361, IEC 61966-2-4 709, SMPTE RP177

    Audio #1
    ID                                       : 2
    Format                                   : AC-3
    Format/Info                              : Audio Coding 3
    Mode extension                           : CM (complete main)
    Codec ID                                 : A_AC3
    Duration                                 : 1h 26mn
    Bit rate mode                            : Constant
    Bit rate                                 : 192 Kbps
    Channel(s)                               : 2 channels
    Channel positions                        : Front: L R
    Sampling rate                            : 48.0 KHz
    Bit depth                                : 16 bits
    Compression mode                         : Lossy
    Stream size                              : 119 MiB (4%)
    Title                                    : Анион Агапов
    Language                                 : Russian
    Default                                  : Yes
    Forced                                   : Yes

    Audio #2
    ID                                       : 3
    Format                                   : AC-3
    Format/Info                              : Audio Coding 3
    Mode extension                           : CM (complete main)
    Codec ID                                 : A_AC3
    Duration                                 : 1h 26mn
    Bit rate mode                            : Constant
    Bit rate                                 : 384 Kbps
    Channel(s)                               : 6 channels
    Channel positions                        : Front: L C R, Side: L R, LFE
    Sampling rate                            : 48.0 KHz
    Bit depth                                : 16 bits
    Compression mode                         : Lossy
    Stream size                              : 238 MiB (8%)
    Language                                 : English
    Default                                  : No
    Forced                                   : No

    Text #1
    ID                                       : 4
    Format                                   : UTF-8
    Codec ID                                 : S_TEXT/UTF8
    Codec ID/Info                            : UTF-8 Plain Text
    Language                                 : Russian
    Default                                  : Yes
    Forced                                   : Yes

    Text #2
    ID                                       : 5
    Format                                   : UTF-8
    Codec ID                                 : S_TEXT/UTF8
    Codec ID/Info                            : UTF-8 Plain Text
    Language                                 : English
    Default                                  : No
    Forced                                   : No

    Menu
    00:00:00.000                             : en:1
    00:07:57.000                             : en:2
    00:18:05.000                             : en:3
    00:25:18.000                             : en:4
    00:35:50.000                             : en:5
    00:47:01.000                             : en:6
    00:57:25.000                             : en:7
    01:09:27.000                             : en:8
    01:23:34.000                             : en:9

    Скриншоты:

    Каталог Новинок (Фильмы-трейлеры, Игры, Сериалы, Мультфильмы)

    © Оформление by Ворон
    pb.wtf



  • Скачать Гензель против Гретель через торрент http://pic.kartinco.top/images/6/ordi9.jpg Скачать фильм Гензель против Гретель через торрент бесплантно в хорошем качестве Описание:Когда Гретель попадает под "темное заклинание" и организует шабаш ведьм, Гензель должны найти в себе мужество бороться с своей ... 8.9 10 8
    Торрент: Зарегистрирован [2015-01-24 16:45] · скачан: 142 раз
    Статус: T временная
    Размер: 2.8 GB
    Как cкачать? Как скачать Гензель против Гретель через торрент | qTorrent

    % Раздел Тема Автор DL S | L
    T Фильмы 2015 (Звук TS, Cam, VO, DVO) [ 1.2 GB ] Гензель против Гретель / Hansel Vs. Gretel [2015 HDRip Любительский одноголосый - datynet] Anonymous Скачать
    1 | 0

    28-11-2019 20:33  

    Отключить всю рекламу на сайте

    24-01-2015 17:54 Гензель против Гретель Скачать торрент  

    Ахаха))
    Только такого трэша об этой истории и не хватало))pb.wtf



    24-01-2015 17:56 Гензель против Гретель Скачать торрент  

    [Даблпост]pb.wtf



    24-01-2015 18:55 Гензель против Гретель Скачать торрент  

    ТЭВЭ ТРИpb.wtf



    25-01-2015 14:53 Гензель против Гретель Скачать торрент  

    настоящий мистичиский)pb.wtf



      Дорогой пользователь! Огромная просьба, поблагодарите релизера, оцените раздачу и оставьте свои комментарий, если Вы скачали Гензель против Гретель через торрент бесплатно! Внесите свою лепту в развитие PiratBit!
      Комментировать посты могут только пользователи прошедшие не сложную регистрацию
      Показать сообщения:    

      Гензель против Гретель через торрент
      Скачать бесплатно Гензель против Гретель
      Гензель против Гретель скачать торрент
      Гензель против Гретель смотреть онлайн
      Cкачать фильм Гензель против Гретель бесплатно
      Гензель против Гретель скачать торрент в хорошем качестве
      Гензель против Гретель смотреть онлайн бесплатно в хорошем качестве


      Вы не можете начинать темы
      Вы не можете отвечать на сообщения
      Вы не можете редактировать свои сообщения
      Вы не можете удалять свои сообщения
      Вы не можете голосовать в опросах
      Вы не можете прикреплять файлы к сообщениям
      Вы можете скачивать файлы