Ссылка на приватное зеркало нашего сайта всего за 1$. Внимание количество ограничено!!!

2 сезон

iTunes

1 сезон

1

iTunes

iTunes

iTunes

1 сезон

RePack

30

ИГРА 18+

pack

ВАЖНО

!!Акция!!

Alien_RageХит недели

RePack

MK11
pack

Забери бонус

RePack

jed

!!Акция!!

Alien_Rage

RePack

fifa19

RePack

Assassins Creed: Odyssey

RePack

NEED FOR SPEED™ PAYBACK

4 сезон

9 сезон

Бесстыжие 9 сезон

Все сериалы

все сериалы на PB.wtf

RePack

FAR CRY 5
  

Ночь покера / Poker Night (Грег Френсис ) [2014, боевик, триллер, криминал, HDRip, Любительский (двухголосый) [den904, DeadSno] pb.wtf

Ночь покера через торрент pb.wtf

Размер: 1.36 GB | Добавлен: 5 лет 8 мес. назад | Торрент скачан:384 раза
Скачать  

24-01-2015 18:25 Ночь покера Скачать торрент  


Ночь покера / Poker Night


Год выпуска:2014
Страна: Канада, США
Жанр:боевик, триллер, криминал
Продолжительность:01:45:02
Перевод:Любительский (двухголосый) [den904, DeadSno]
Режиссер:Грег Френсис

  • В ролях:

    Бо Мирчофф (Jeter), Рон Перлман (Calabrese), Джанкарло Эспозито (Bernard), Кори Лардж (Davis), Титус Уэлливер (Maxwell), Хелстон Сейдж (Amy), Рон Элдард (Cunningham), Майкл Эклунд, Киран Лардж (Shawn Allen), Локлин Манро (Munson), Чад Кровчук (Mr.Bootles), Лорен Доннелли (Reporter)
  • Описание:
    В городке Уорсо, штат Индиана, по традиции опытные детективы устраивают игры в покер, за которыми хвастаются своими самыми поучительными делами перед молодыми коллегами. После одной такой игры главного героя - начинающего детектива Джетера - ждет опыт, которым он сам сможет похвастаться, если, конечно, высвободится из рук маньяка...

  • Мировая премьера:20 ноября 2014

    Качество: HDRip
    Формат:MKV
    Видео кодек: XviD
    Аудио кодек:AC3
    Видео: XviD, 720x304 (2.40:1), 1474 kbps, 23,976 fps, 0,274 bpp
    Аудио: русский / AC3 / 5.1 / 48 kHz / 384 kbps / 16 bit ||


    Код:

    General
    Unique ID                                : 201705544948649734671269545145049730636 (0x97BF132C6BAE5839B6B24FF3F47ACE4C)
    Complete name                            : D:\Торенты\Poker.Night.2014.HDRip.XviD.AC3.avi
    Format                                   : Matroska
    Format version                           : Version 2
    File size                                : 1.36 GiB
    Duration                                 : 1h 45mn
    Overall bit rate                         : 1 849 Kbps
    Encoded date                             : UTC 2015-01-23 07:52:26
    Writing application                      : mkvmerge v5.0.1 ('Es ist Sommer') built on Oct 24 2011 19:45:06
    Writing library                          : libebml v1.2.2 + libmatroska v1.3.0

    Video
    ID                                       : 1
    Format                                   : MPEG-4 Visual
    Format profile                           : Simple@L5
    Format settings, BVOP                    : No
    Format settings, QPel                    : No
    Format settings, GMC                     : No warppoints
    Format settings, Matrix                  : Default (H.263)
    Codec ID                                 : XVID
    Codec ID/Hint                            : XviD
    Duration                                 : 1h 45mn
    Bit rate                                 : 1 474 Kbps
    Width                                    : 720 pixels
    Height                                   : 304 pixels
    Display aspect ratio                     : 2.40:1
    Frame rate                               : 23.976 fps
    Color space                              : YUV
    Chroma subsampling                       : 4:2:0
    Bit depth                                : 8 bits
    Scan type                                : Progressive
    Compression mode                         : Lossy
    Bits/(Pixel*Frame)                       : 0.274
    Stream size                              : 1.05 GiB (77%)
    Writing library                          : Lavc56.19.100
    Default                                  : Yes
    Forced                                   : No

    Audio
    ID                                       : 2
    Format                                   : AC-3
    Format/Info                              : Audio Coding 3
    Mode extension                           : CM (complete main)
    Muxing mode                              : Header stripping
    Codec ID                                 : A_AC3
    Duration                                 : 1h 45mn
    Bit rate mode                            : Constant
    Bit rate                                 : 384 Kbps
    Channel(s)                               : 6 channels
    Channel positions                        : Front: L C R, Side: L R, LFE
    Sampling rate                            : 48.0 KHz
    Bit depth                                : 16 bits
    Compression mode                         : Lossy
    Stream size                              : 289 MiB (21%)
    Language                                 : Russian
    Default                                  : Yes
    Forced                                   : Yes

    Скриншоты:

    Каталог Новинок (Фильмы-трейлеры, Игры, Сериалы, Мультфильмы)

    © Оформление by Ворон
    pb.wtf



  • Скачать Ночь покера через торрент http://pic.kartinco.top/images/6/ordi9.jpg Скачать фильм Ночь покера через торрент бесплантно в хорошем качестве Описание:В городке Уорсо, штат Индиана, по традиции опытные детективы устраивают игры в покер, за которыми хвастаются своими самыми ... 10 10 6
    Торрент: Зарегистрирован [2015-01-24 18:25] · скачан: 384 раз
    Статус: T временная
    Размер: 1.36 GB
    Как cкачать? Как скачать Ночь покера через торрент | qTorrent

    % Раздел Тема Автор DL S | L
    Фильмы [HD 720p, 1080p] (Хороший звук DUB, MVO) [ 13.17 GB ] Ночь покера / Poker Night [2014 BDRip 1080p by msltel] 2 x DVO 2 x AVO msltel Скачать
    1 | 1
    Фильмы [HD 720p, 1080p] (Хороший звук DUB, MVO) [ 4.85 GB ] Ночь покера / Poker Night [2014 BDRip 720p by msltel] 2 x DVO 2 x AVO msltel Скачать
    3 | 0
    Фильмы 2014 [DVDrip, WEB-DLRip, HDrip] [ 3.13 GB ] Ночь покера / Poker Night [2014 BDRip by msltel] 2 x DVO 2 x AVO msltel Скачать
    1 | 0
    Фильмы 2014 [DVDrip, WEB-DLRip, HDrip] [ 1.46 GB ] Ночь покера / Poker Night [2014 HDRip ] 10oN Скачать
    1 | 0
    Фильмы 2014 [DVDrip, WEB-DLRip, HDrip] [ 2.05 GB ] Ночь покера / Poker Night [2014 HDRip ] 10oN Скачать
    1 | 0
    Фильмы 2014 [DVDrip, WEB-DLRip, HDrip] [ 2.18 GB ] Ночь покера / Poker Night [2014 BDRip-AVC ] + + 10oN Скачать
    1 | 0
    T Фильмы [HD 720p, 1080p] (Звук Cam, VO, DVO) [ 7.93 GB ] Ночь покера / Poker Night [2014 BDRip 1080p Любительский [den904 DeadSno] Ворон Скачать
    1 | 0

    28-11-2019 20:33  

    Отключить всю рекламу на сайте

      Дорогой пользователь! Огромная просьба, поблагодарите релизера, оцените раздачу и оставьте свои комментарий, если Вы скачали Ночь покера через торрент бесплатно! Внесите свою лепту в развитие PiratBit!
      Комментировать посты могут только пользователи прошедшие не сложную регистрацию
      Показать сообщения:    

      Ночь покера через торрент
      Скачать бесплатно Ночь покера
      Ночь покера скачать торрент
      Ночь покера смотреть онлайн
      Cкачать фильм Ночь покера бесплатно
      Ночь покера скачать торрент в хорошем качестве
      Ночь покера смотреть онлайн бесплатно в хорошем качестве


      Вы не можете начинать темы
      Вы не можете отвечать на сообщения
      Вы не можете редактировать свои сообщения
      Вы не можете удалять свои сообщения
      Вы не можете голосовать в опросах
      Вы не можете прикреплять файлы к сообщениям
      Вы можете скачивать файлы