Ссылка на приватное зеркало нашего сайта всего за 1$. Внимание количество ограничено!!!

2 сезон

iTunes

1 сезон

1

2 сезон

2 сезон

iTunes

1 сезон

RePack

30

Ultimate

ВАЖНО

ИГРА 18+

pack

RePack

MK11
pack

Забери бонус

RePack

jed

!!Акция!!

Alien_Rage

RePack

fifa19

RePack

Assassins Creed: Odyssey

RePack

NEED FOR SPEED™ PAYBACK

4 сезон

9 сезон

Бесстыжие 9 сезон

Все сериалы

все сериалы на PB.wtf

RePack

FAR CRY 5
  

Приятный на вид / Милашка / Eye Candy / Сезон:1 / Cерии: 1-6 из 10 (Скотт Спир, Кэтрин Хардвик) [2015 г., Триллер, драма, детектив, HDTVRip] DVO (Alternative Production) pb.wtf

Приятный на вид через торрент pb.wtf

Размер: 3.25 GB | Добавлен: 5 лет 9 мес. назад | Торрент скачан:18 раз
Скачать  

25-01-2015 19:36 Приятный на вид Скачать торрент  

Приятный на вид / Милашка / Eye CandyГод выпуска: 2015
Страна: США Blumhouse Productions, Jax Media
Жанр: Триллер, драма, детектив
Продолжительность: 6 x ~ 00:43:00
Перевод: Любительский двухголосый (Alternative Production)

Режиссер: Скотт Спир, Кэтрин Хардвик
Продюссер: Дэвид Бауш, Тони Эрнандез
Сценарий: Р. Л. Стайн

Премьера в мире: 12 января 2015 В ролях: Виктория Джастис, Харви Гильен, Кэйси Дейдрик, Кирси Клемонс, Райан Купер, Рэйчел Кенни, Питер Марк Кендалл

Описание: Место действие сериала Нью-Йорк, в котором проживает молодая девушка Линди. Практически все свободное время Линди проводит в интернете. Во всемирной паутине девушка ищет себе молодого человека. Наконец-то фотография одного молодого человека понравилась ей. В самом начале молодой человек понравился Линди и онлайн общение с ним доставляло ей удовольствие. Но потом девушка заметила, что парень иногда бывает агрессивным. Сопоставив ряд факторов Линди делает неожиданный вывод, что молодой человек маньяк, который в ужасе держит весь город. Теперь у девушки появилась цель выявить серийного убийцу, с помощью своих друзей хакеров.

Качество: HDTVRip
Формат: AVI
Видео кодек: XviD
Аудио кодек: MP3
Видео: Xvid 720x400, 23.976fps, 1652kbps
Аудио: MP3, 48000Hz, stereo, 192kbps
Релиз от: zeka80

Скриншоты:
скриншот   скриншот   скриншот   скриншот   скриншот   скриншот   скриншот   скриншот  




General
Complete name : E:\01 02 2013\Eye Candy [Alternative Production]\Eye Candy s01e01 [Alt Pro].avi
Format : AVI
Format/Info : Audio Video Interleave
File size : 544 MiB
Duration : 41mn 1s
Overall bit rate : 1 854 Kbps
Writing application : MEncoder SVN-r33883(20110719-gcc4.5.2)
Writing library : VirtualDub build 32842/release

Video
ID : 0
Format : MPEG-4 Visual
Format profile : Advanced Simple@L5
Format settings, BVOP : 2
Format settings, QPel : No
Format settings, GMC : No warppoints
Format settings, Matrix : Default (H.263)
Muxing mode : Packed bitstream
Codec ID : XVID
Codec ID/Hint : XviD
Duration : 41mn 1s
Bit rate : 1 652 Kbps
Width : 720 pixels
Height : 400 pixels
Display aspect ratio : 16:9
Frame rate : 23.976 fps
Color space : YUV
Chroma subsampling : 4:2:0
Bit depth : 8 bits
Scan type : Progressive
Compression mode : Lossy
Bits/(Pixel*Frame) : 0.239
Stream size : 485 MiB (89%)
Writing library : XviD 73

Audio
ID : 1
Format : MPEG Audio
Format version : Version 1
Format profile : Layer 3
Mode : Joint stereo
Codec ID : 55
Codec ID/Hint : MP3
Duration : 41mn 1s
Bit rate mode : Constant
Bit rate : 192 Kbps
Channel(s) : 2 channels
Sampling rate : 48.0 KHz
Compression mode : Lossy
Stream size : 56.3 MiB (10%)
Alignment : Split accross interleaves
Interleave, duration : 42 ms (1.00 video frame)
Interleave, preload duration : 500 ms

Внимание! Раздача ведётся путём добавления новых серий; при каждом добавлении создаётся новый торрент-файл. Чтобы начать дозакачку новой серии, пользователям необходимо сделать следующее:
(1) остановить скачивание,
(2) удалить старый торрент-файл у себя из клиента (старые серии удалять не надо),
(3) скачать новый торрент-файл и запустить его у себя в клиенте вместо старого, при этом указать клиенту путь в старую папку куда и должно происходить скачивание новых серий.
Ваш клиент при этом должен произвести хеширование (проверку) старой папки (если не производит сам - помогите ему сделать это), и будет докачивать только те серии которых у вас ещё нет. Старые серии при этом не удаляются, а продолжают раздаваться!
Eсли вы уже удалили старые серии, то предотвратить повторную закачку старых серий можно, отжав галочку в соответствующих местах при запуске нового торрента.
Добавил 5-6 Серии!Обновите торрент!pb.wtf



Скачать Приятный на вид через торрент http://fs2.directupload.net/images/150125/wpkqjea7.jpg Скачать фильм Приятный на вид через торрент бесплантно в хорошем качестве Описание: Место действие сериала Нью-Йорк, в котором проживает молодая девушка Линди. Практически все свободное время Линди проводит в ... 8.9 10 8
Торрент: Зарегистрирован [2015-02-21 04:46] · скачан: 18 раз
Статус: √ проверено
Размер: 3.25 GB
Как cкачать? Как скачать Приятный на вид через торрент | qTorrent



Последний раз редактировалось: lug30 (2015-02-21 04:46), всего редактировалось 3 раз(а)

28-11-2019 20:33  

Отключить всю рекламу на сайте

04-02-2015 15:09 Приятный на вид Скачать торрент  

Добавил 3 Серию!Обновите торрент!pb.wtf



06-02-2015 19:56 Приятный на вид Скачать торрент  

Добавил 4 Серию!Обновите торрент!pb.wtf



21-02-2015 04:47 Приятный на вид Скачать торрент  

Добавил 5-6 Серии!Обновите торрент!pb.wtf



    Дорогой пользователь! Огромная просьба, поблагодарите релизера, оцените раздачу и оставьте свои комментарий, если Вы скачали Приятный на вид через торрент бесплатно! Внесите свою лепту в развитие PiratBit!
    Комментировать посты могут только пользователи прошедшие не сложную регистрацию
    Показать сообщения:    

    Приятный на вид через торрент
    Скачать бесплатно Приятный на вид
    Приятный на вид скачать торрент
    Приятный на вид смотреть онлайн
    Cкачать фильм Приятный на вид бесплатно
    Приятный на вид скачать торрент в хорошем качестве
    Приятный на вид смотреть онлайн бесплатно в хорошем качестве


    Вы не можете начинать темы
    Вы не можете отвечать на сообщения
    Вы не можете редактировать свои сообщения
    Вы не можете удалять свои сообщения
    Вы не можете голосовать в опросах
    Вы не можете прикреплять файлы к сообщениям
    Вы можете скачивать файлы