Ссылка на приватное зеркало нашего сайта всего за 1$. Внимание количество ограничено!!!

2 сезон

iTunes

1 сезон

1

iTunes

iTunes

iTunes

1 сезон

RePack

30

ИГРА 18+

pack

ВАЖНО

!!Акция!!

Alien_RageХит недели

RePack

MK11
pack

Забери бонус

RePack

jed

!!Акция!!

Alien_Rage

RePack

fifa19

RePack

Assassins Creed: Odyssey

RePack

NEED FOR SPEED™ PAYBACK

4 сезон

9 сезон

Бесстыжие 9 сезон

Все сериалы

все сериалы на PB.wtf

RePack

FAR CRY 5
  

Шпион, пришедший с холода / The Spy Who Came in from the Cold (Мартин Ритт) [1965, драма, триллер, BDRip 720p] MVO, AVO pb.wtf

Шпион, пришедший с холода через торрент pb.wtf

Размер: 6.28 GB | Добавлен: 5 лет 9 мес. назад | Торрент скачан:11 раз
Скачать  

26-01-2015 06:54 Шпион, пришедший с холода Скачать торрент  

Шпион, пришедший с холода / The Spy Who Came in from the Cold

Год выпуска: 1965
Страна: Великобритания
Жанр: драма, триллер
Продолжительность: 01:52:24
Перевод: профессиональный многоголосый, авторский
Субтитры: английские

Режиссёр: Мартин Ритт

В ролях: Ричард Бёртон, Клер Блум, Оскар Вернер, Сирил Кьюсак, Майкл Хордерн, Сэм Уэнамэйкер, Джордж Восковек, Руперт Дейвис, Петер ван Эйк, Роберт Харди

Описание: Начало 1960-х годов. Разгар холодной войны. Алек Лимас, резидент английской разведки в Германии, теряет всех своих агентов, работавших в ГДР. За убийствами агентов стоит глава оперативного отдела восточно-германской разведки Ганс Дитер Мундт. Лимаса отзывают в Лондон. Глава разведки Контролёр предлагает Лимасу шанс реабилитироваться и отомстить Мундту... Фильм является экранизацией одноименного романа Дэвида Корнуэлла, более известного читателям под именем Джона Ле Карре.



Качество: BDRip 720p Сравнение с исходником
Формат: MKV
Видео кодек: H.264
Аудио кодек: AC3
Видео: 7262 Kбит/с, 1200x720, 23.976 кадра/с, 0.351 bpp
Аудио 1: русский, AC3, 192 kbps, 6 ch, 48 kHz [профессиональный многоголосый, Спб, 5 канал]
Аудио 2: русский, AC3, 192 kbps, 6 ch, 48 kHz [авторский, Юрий Медведев]
Аудио 3: английский, AC3, 192 kbps, 6 ch, 48 kHz [оригинал]
Британская академия, 1967 год
Победитель (4):
Лучший британский актер (Ричард Бёртон)
Лучшая работа оператора (ч/б фильмы)
Лучшая работа художника (ч/б фильмы)
Лучший британский фильм

Номинации (2):
Лучший фильм
Лучший иностранный актер (Оскар Вернер)

Оскар, 1966 год
Номинации (2):
Лучшая мужская роль (Ричард Бёртон)
Лучшая работа художника (ч/б фильмы)

Золотой глобус, 1966 год
Победитель (1):
Лучшая мужская роль второго плана (Оскар Вернер)
Общее
Уникальный идентификатор : 219516508688967793219382359639320596922 (0xA525577C15DA66B7A43B68A9655291BA)
Полное имя : D:VideoShpion.1965.BDRip.720p.mkv
Формат : Matroska
Версия формата : Version 4 / Version 2
Размер файла : 6,28 Гбайт
Продолжительность : 1 ч. 52 м.
Общий поток : 7997 Кбит/сек
Дата кодирования : UTC 2015-01-26 04:03:19
Программа кодирования : mkvmerge v7.5.0 ('Glass Culture') 64bit built on Jan 4 2015 16:48:44
Библиотека кодирования : libebml v1.3.1 + libmatroska v1.4.2
_STATISTICS_WRITING_APP : mkvmerge v7.5.0 ('Glass Culture') 64bit built on Jan 4 2015 16:48:44
_STATISTICS_WRITING_DATE_UTC : 2015-01-26 04:03:19
_STATISTICS_TAGS : BPS DURATION NUMBER_OF_FRAMES NUMBER_OF_BYTES
DURATION : 01:48:13.883000000
NUMBER_OF_FRAMES : 1297
NUMBER_OF_BYTES : 52202

Видео
Идентификатор : 1
Формат : AVC
Формат/Информация : Advanced Video Codec
Профиль формата : High@L4.1
Параметр CABAC формата : Да
Параметр ReFrames формата : 9 кадров
Идентификатор кодека : V_MPEG4/ISO/AVC
Продолжительность : 1 ч. 52 м.
Битрейт : 7262 Кбит/сек
Ширина : 1200 пикселей
Высота : 720 пикселей
Соотношение сторон : 1,667
Режим частоты кадров : Постоянный
Частота кадров : 23,976 кадра/сек
Цветовое пространство : YUV
Субдискретизация насыщенности : 4:2:0
Битовая глубина : 8 бит
Тип развёртки : Прогрессивная
Бит/(Пиксели*Кадры) : 0.351
Размер потока : 5,70 Гбайт (91%)
Заголовок : BDRip -- STarankov
Библиотека кодирования : x264 core 142 r2431 ac76440
Настройки программы : cabac=1 / ref=9 / deblock=1:-1:-1 / analyse=0x3:0x113 / me=umh / subme=10 / psy=1 / psy_rd=1.00:0.15 / mixed_ref=1 / me_range=32 / chroma_me=1 / trellis=2 / 8x8dct=1 / cqm=0 / deadzone=21,11 / fast_pskip=1 / chroma_qp_offset=-3 / threads=6 / lookahead_threads=1 / sliced_threads=0 / nr=0 / decimate=1 / interlaced=0 / bluray_compat=0 / constrained_intra=0 / bframes=8 / b_pyramid=2 / b_adapt=2 / b_bias=0 / direct=3 / weightb=1 / open_gop=0 / weightp=2 / keyint=230 / keyint_min=23 / scenecut=40 / intra_refresh=0 / rc_lookahead=40 / rc=crf / mbtree=0 / crf=19.5 / qcomp=0.60 / qpmin=0 / qpmax=69 / qpstep=4 / vbv_maxrate=40000 / vbv_bufsize=50000 / crf_max=0.0 / nal_hrd=none / filler=0 / ip_ratio=1.40 / pb_ratio=1.30 / aq=1:1.00
Язык : English
Default : Да
Forced : Нет
DURATION : 01:52:24.989000000
NUMBER_OF_FRAMES : 161718
NUMBER_OF_BYTES : 6254505504
_STATISTICS_WRITING_APP : mkvmerge v7.5.0 ('Glass Culture') 64bit built on Jan 4 2015 16:48:44
_STATISTICS_WRITING_DATE_UTC : 2015-01-26 04:03:19
_STATISTICS_TAGS : BPS DURATION NUMBER_OF_FRAMES NUMBER_OF_BYTES

Аудио #1
Идентификатор : 2
Формат : AC-3
Формат/Информация : Audio Coding 3
Расширение режима : CM (complete main)
Параметр Endianness формата : Big
Идентификатор кодека : A_AC3
Продолжительность : 1 ч. 52 м.
Вид битрейта : Постоянный
Битрейт : 192 Кбит/сек
Каналы : 2 канала
Расположение каналов : Front: L R
Частота : 48,0 КГц
Битовая глубина : 16 бит
Метод сжатия : С потерями
Размер потока : 154 Мбайт (2%)
Заголовок : MVO (Спб, 5 канал)
Язык : Russian
Default : Да
Forced : Нет

Аудио #2
Идентификатор : 3
Формат : AC-3
Формат/Информация : Audio Coding 3
Расширение режима : CM (complete main)
Параметр Endianness формата : Big
Идентификатор кодека : A_AC3
Продолжительность : 1 ч. 52 м.
Вид битрейта : Постоянный
Битрейт : 192 Кбит/сек
Каналы : 2 канала
Расположение каналов : Front: L R
Частота : 48,0 КГц
Битовая глубина : 16 бит
Метод сжатия : С потерями
Размер потока : 154 Мбайт (2%)
Заголовок : AVO (Юрий Медведев)
Язык : Russian
Default : Нет
Forced : Нет

Аудио #3
Идентификатор : 4
Формат : AC-3
Формат/Информация : Audio Coding 3
Расширение режима : CM (complete main)
Параметр Endianness формата : Big
Идентификатор кодека : A_AC3
Продолжительность : 1 ч. 52 м.
Вид битрейта : Постоянный
Битрейт : 192 Кбит/сек
Каналы : 2 канала
Расположение каналов : Front: L R
Частота : 48,0 КГц
Битовая глубина : 16 бит
Метод сжатия : С потерями
Размер потока : 154 Мбайт (2%)
Заголовок : Original
Язык : English
Default : Нет
Forced : Нет

Текст
Идентификатор : 5
Формат : UTF-8
Идентификатор кодека : S_TEXT/UTF8
Идентификатор кодека/Информация : UTF-8 Plain Text
Заголовок : английский
Язык : English
Default : Нет
Forced : Нет
pb.wtf



Скачать Шпион, пришедший с холода через торрент http://i57.fastpic.ru/big/2015/0125/6e/b2f6884307574bf5cc05b7435bb5316e.jpg Скачать фильм Шпион, пришедший с холода через торрент бесплантно в хорошем качестве Описание: Начало 1960-х годов. Разгар холодной войны. Алек Лимас, резидент английской разведки в Германии, теряет всех своих агентов, ... 5 10 1
Торрент: Зарегистрирован [2015-01-26 06:54] · скачан: 11 раз
Статус: √ проверено
Размер: 6.28 GB
Как cкачать? Как скачать Шпион, пришедший с холода через торрент | qTorrent

% Раздел Тема Автор DL S | L
Фильмы [HD 720p, 1080p] (Хороший звук DUB, MVO) [ 13.26 GB ] Шпион пришедший с холода / The Spy Who Came in from the Cold [1965 BDRip 1080p] MVO AVO msltel Скачать
1 | 0

28-11-2019 20:33  

Отключить всю рекламу на сайте

    Дорогой пользователь! Огромная просьба, поблагодарите релизера, оцените раздачу и оставьте свои комментарий, если Вы скачали Шпион, пришедший с холода через торрент бесплатно! Внесите свою лепту в развитие PiratBit!
    Комментировать посты могут только пользователи прошедшие не сложную регистрацию
    Показать сообщения:    

    Шпион, пришедший с холода через торрент
    Скачать бесплатно Шпион, пришедший с холода
    Шпион, пришедший с холода скачать торрент
    Шпион, пришедший с холода смотреть онлайн
    Cкачать фильм Шпион, пришедший с холода бесплатно
    Шпион, пришедший с холода скачать торрент в хорошем качестве
    Шпион, пришедший с холода смотреть онлайн бесплатно в хорошем качестве


    Вы не можете начинать темы
    Вы не можете отвечать на сообщения
    Вы не можете редактировать свои сообщения
    Вы не можете удалять свои сообщения
    Вы не можете голосовать в опросах
    Вы не можете прикреплять файлы к сообщениям
    Вы можете скачивать файлы