Всегда рабочее зеркало без VPN и Proxy просто перед .vidak.icu напиши любое слово или цифру, Пример http://4mv.vidak.icu

>

7.4

iTunes

7.4

2 сезон

6.6

iTunes

1

7.4

2 сезон

7.2

iTunes

6.0

MVO

13

6.1

iTunes

8.3

Пиратка

30

ULTIMATE

pack

9.9

Лицензия

ВАЖНО

ИГРА 18+

pack

7.3

RePack

MK11

7.7

RePack

jed

7.8

RePack

fifa19

8.5

RePack

RDR2

RePack

NEED FOR SPEED™ PAYBACK

1 сезон

9 сезон

Бесстыжие 9 сезон

Все сериалы

все сериалы на PB.wtf

RePack

FAR CRY 5

Anonymous, добрый день, мы катастрофически не успеваем собрать деньги на оплату серверов, помогите нам пожалуйста 5,10,15р., для нас важна любая помощь . В качестве благодарности мы отключим Вам всю рекламу на сайте (укажите свой ник в строку Ваше имя)!

×
  
Magnet ссылка

Великий уравнитель / The Equalizer (Антуан Фукуа) [2014 г., боевик, триллер, криминал, HDRip, Авторский (Гаврилов)] pb.wtf

Великий уравнитель через торрент pb.wtf

Размер: 1.46 GB | Добавлен: 7 лет назад | Торрент скачан:310 раз
Смотреть онлайн Великий уравнитель | Скачать    Ребята, помогите собрать деньги на оплату серверов!!!

26-01-2015 11:26 Великий уравнитель Скачать торрент  

Великий уравнитель / The Equalizer
Год выпуска: 2014
Страна: США | Columbia Pictures, Village Roadshow Pictures, ZHIV Productions, Mace Neufeld Productions, LStar Capital, Lonetree Entertainment, Escape Artists
Жанр: боевик, триллер, криминал
Продолжительность: 131 мин. / 02:11
Перевод: Авторский (Гаврилов)

Режиссер: Антуан Фукуа
Продюссер: Тодд Блэк, Джейсон Блюменталь, Тони Элдридж
Сценарий: Ричард Уэнк, Майкл Слоун, Ричард Линдхейм

Бюджет: $55 000 000
Премьера в мире: 7 сентября 2014

IMDB 7.30 (80 833)



В ролях: Дензел Вашингтон, Мартон Чокаш, Хлоя Грейс Морец, Дэвид Харбор, Хейли Беннетт, Билл Пуллман, Мелисса Лео, Дэвид Мюнье, Джонни Скуртис, Алекс Видов, Денис Беспалый, Илья Исаев, Наталья Терешкова, Игорь Тарадайкин, Любовь Германова

Описание: Роберт МакКолл — бывший спецназовец. После увольнения со службы он собирается начать нормальную мирную жизнь, дав себе обещание больше никогда не брать в руки оружия. Но в один прекрасный момент он встречает молодую девушку, зарабатывающую на жизнь проституцией, которую на его глазах избивают бандиты и увозят в неизвестном направлении. Тогда он решает отыскать ее, после чего вступает в неравную схватку с русской мафией и продажными полицейскими. Ради справедливости он готов нарушить собственное обещание и применить оружие против людей, которые просто не заслуживают жить в этом мире...

Качество: HDRip
Формат: AVI
Видео кодек: XviD
Аудио кодек: AC3
Видео: MPEG4, XviD, 720x304 (2.35:1), 23.976 fps, 1 125 Kbps (0.214 bit/pixel)
Аудио: AC-3, 48.0 KHz, 6 ch, 448 Kbps, CBR

Формат : AVI
Формат/Информация : Audio Video Interleave
Размер файла : 1,46 Гбайт
Продолжительность : 2 ч. 12 м.
Общий поток : 1582 Кбит/сек
Программа кодирования : VirtualDubModRus 1.5.10.2 (build 2542/release)
Библиотека кодирования : VirtualDubMod build 2542/release

Видео
Идентификатор : 0
Формат : MPEG-4 Visual
Профиль формата : Advanced Simple@L5
Параметр BVOP формата : 2
Параметр QPel формата : Нет
Параметр GMC формата : Без точки перехода
Параметр матрицы формата : Default (MPEG)
Идентификатор кодека : XVID
Идентификатор кодека/Подсказка : XviD
Продолжительность : 2 ч. 12 м.
Битрейт : 1125 Кбит/сек
Ширина : 720 пикселей
Высота : 304 пикселя
Соотношение сторон : 2,35:1
Частота кадров : 23,976 кадра/сек
Цветовое пространство : YUV
Субдискретизация насыщенности : 4:2:0
Битовая глубина : 8 бит
Тип развёртки : Прогрессивная
Метод сжатия : С потерями
Бит/(Пиксели*Кадры) : 0.214
Размер потока : 1,04 Гбайт (71%)
Библиотека кодирования : XviD 1.2.1 (UTC 2008-12-04)

Аудио
Идентификатор : 1
Формат : AC-3
Формат/Информация : Audio Coding 3
Расширение режима : CM (complete main)
Параметр Endianness формата : Big
Идентификатор кодека : 2000
Продолжительность : 2 ч. 12 м.
Вид битрейта : Постоянный
Битрейт : 448 Кбит/сек
Каналы : 6 каналов
Расположение каналов : Front: L C R, Side: L R, LFE
Частота : 48,0 КГц
Битовая глубина : 16 бит
Метод сжатия : С потерями
Размер потока : 423 Мбайт (28%)
Выравнивание : Разделение по промежуткам
Продолжительность промежутка : 42 мс. (1,00 видеокадр)
Время предзагрузки промежутка : 500 мс.


Великий уравнитель скачать торрент


pb.wtf



Скачать Великий уравнитель через торрент http://s019.radikal.ru/i642/1501/41/36d6b0f5576b.jpg Скачать, смотреть онлайн Великий уравнитель бесплантно в хорошем качестве Описание: Роберт МакКолл — бывший спецназовец. После увольнения со службы он собирается начать нормальную мирную жизнь, дав себе обещание ... 10 10 3
Торрент: Зарегистрирован [2015-01-26 11:26] · скачан: 310 раз
Статус: √ проверено
Размер: 1.46 GB
Как cкачать? Как скачать Великий уравнитель через торрент | UTorrent

% Раздел Тема Автор DL S | L
Фильмы (HD 720p, 1080p) (48-60 fps) [ 3.32 GB ] Великий уравнитель 2 / The Equalizer 2 [2018 BDRip 720p / 60 FPS BD CEE] от R.G. HD-Films slaventi-69 Скачать
2 | 0
Фильмы (DVD фильмы) [ 7.74 GB ] Великий уравнитель 2 / The Equalizer 2 [2018 DVD9 ] + [AVO] killermax2013 Скачать
1 | 0
Фильмы (HD 720p, 1080p) (48-60 fps) [ 14.85 GB ] Великий уравнитель 2 / The Equalizer 2 [2018 BDRip 1080p 60 fps] DUB [] bober100 Скачать
1 | 0
Ultra HD (UHD: 2K, 4K, 8K) — видео сверхвысокой чёткости [ 56.03 GB ] Великий уравнитель 2 / The Equalizer 2 [2018 UHD Blu-Ray EUR 2160p] DUB [] bober100 Скачать
1 | 0
Фильмы [HD 720p, 1080p] (Хороший звук DUB, MVO) [ 7.31 GB ] Великий уравнитель / The Equalizer [2014 BDRip 1080p HEVC ()+4хAVO] Мичман37 Скачать
1 | 0
Фильмы (Blu-ray, BD-Remux, HDDVD) [ 40.83 GB ] Великий уравнитель 2 / The Equalizer 2 [2018 Blu-ray 1080p] DUB [] bober100 Скачать
1 | 0
Ultra HD (UHD: 2K, 4K, 8K) — видео сверхвысокой чёткости [ 26.32 GB ] Великий уравнитель 2 / The Equalizer 2 [2018 UHD BDRip 2160p] [SDR] DUB + AVO [Дмитрий Есарев] sheker187 Скачать
1 | 0

28-11-2019 20:33  

Отключить всю рекламу на сайте

26-01-2015 12:15 Великий уравнитель Скачать торрент  

мультитрекер в этом разделе запрещен
pb.wtf



26-01-2015 13:19 Великий уравнитель Скачать торрент  

Да здравствует"Русская Мафия"!!!!Великий и Ужасный Жупел всех времён и народов!!!И что бы Халивуд снимал,не будь этой самой "мафии"? :rofle: roflpb.wtf



26-01-2015 13:51 Великий уравнитель Скачать торрент  

killermax2013, изначальный торрент-файл залит сюда, а уж куда его дальше перельют,личное дело каждого.pb.wtf



26-01-2015 18:29 Великий уравнитель Скачать торрент  

ASPID100 писал(а):

killermax2013, изначальный торрент-файл залит сюда, а уж куда его дальше перельют,личное дело каждого.

брехня изначально его скачал на другом трекере и уже спустя около полу часа он тут всплыл sarcasticpb.wtf



26-01-2015 20:24 Великий уравнитель Скачать торрент  

killermax2013, аннонсеры проверь, и время заливки,релиз то мой,и он раньше ну просто не мог появится нигде :sarcastic_blum:Надо было,стопорнуть раздачу на 90% и посмотрели бы,как ты его докачал на другом трекереpb.wtf



    Дорогой пользователь! Огромная просьба, поблагодарите релизера, оцените раздачу и оставьте свои комментарий, если Вы скачали Великий уравнитель через торрент бесплатно!
    Комментировать посты могут только пользователи прошедшие не сложную регистрацию
    Показать сообщения:    

    Великий уравнитель через торрент
    Скачать бесплатно Великий уравнитель
    Великий уравнитель скачать торрент
    Великий уравнитель смотреть онлайн
    Cкачать фильм Великий уравнитель бесплатно
    Великий уравнитель скачать торрент в хорошем качестве
    Великий уравнитель смотреть онлайн бесплатно в хорошем качестве


    Вы не можете начинать темы
    Вы не можете отвечать на сообщения
    Вы не можете редактировать свои сообщения
    Вы не можете удалять свои сообщения
    Вы не можете голосовать в опросах
    Вы не можете прикреплять файлы к сообщениям
    Вы можете скачивать файлы