Ссылка на приватное зеркало нашего сайта всего за 1$. Внимание количество ограничено!!!

2 сезон

iTunes

1 сезон

1

iTunes

iTunes

iTunes

1 сезон

RePack

30

ИГРА 18+

pack

ВАЖНО

!!Акция!!

Alien_RageХит недели

RePack

MK11
pack

Забери бонус

RePack

jed

!!Акция!!

Alien_Rage

RePack

fifa19

RePack

Assassins Creed: Odyssey

RePack

NEED FOR SPEED™ PAYBACK

4 сезон

9 сезон

Бесстыжие 9 сезон

Все сериалы

все сериалы на PB.wtf

RePack

FAR CRY 5
  

Легко ли быть молодым (1 сезон 1 серия из 8) (Александр Наумов) [2015 г., Комедия, SATRip] - Оригинал pb.wtf

Легко ли быть молодым через торрент pb.wtf

Размер: 302 MB | Добавлен: 5 лет 9 мес. назад | Торрент скачан:138 раз
Скачать  

26-01-2015 12:02 Легко ли быть молодым Скачать торрент  

Легко ли быть молодым Год выпуска: 2015
Страна: Россия
Жанр: Комедия
Продолжительность: ~ 00:23:00 серия
Перевод: Оригинал

Премьера в мире: 26/01/2015

Режиссер: Александр Наумов

В ролях:
Мишель Мстоян, Яна Енжаева, Владислав Гутов, Дарья Склярова, Артём Ботов, Валерия Терехина, Александр Бостаниди, Полина Поликанова, Александра Ахромеева, Сергей Ларин (III), Артём Вялов, Андрей Крыжний, Елизавета Кононова

Описание: Легко ли быть молодым, если живешь в современном мегаполисе? Легко ли быть молодым, если влюбился в того, кто тебе не пара? Или если ты — толстая? И твой парень тебе изменяет? Легко ли быть молодым, если тебе понравилась девочка из соседнего двора, но для нее ты — лицо кавказской национальности?

Качество: SATRip
Формат: AVI
Видео кодек: XviD
Аудио кодек: MP3
Видео: 720x400 (1.80:1), 25 fps, XviD build 50 ~1799 kbps avg, 0.25 bit/pixel
Аудио#1: 48 kHz, MPEG Layer 3, 2 ch, ~128.00 kbps avg
Общее
Полное имя : D:\uTorrent\Legko.li.byt.molodym.01.SATRip.avi
Формат : AVI
Формат/Информация : Audio Video Interleave
Размер файла : 302 Мбайт
Продолжительность : 21 м.
Общий поток : 1938 Кбит/сек
Программа кодирования : VirtualDubMod 1.5.10.3 | www.virtualdub-fr.org || (build 2550/release)
Библиотека кодирования : VirtualDubMod build 2550/release

Видео
Идентификатор : 0
Формат : MPEG-4 Visual
Профиль формата : Advanced Simple@L5
Параметр BVOP формата : 2
Параметр QPel формата : Нет
Параметр GMC формата : Без точки перехода
Параметр матрицы формата : Default (H.263)
Идентификатор кодека : XVID
Идентификатор кодека/Подсказка : XviD
Продолжительность : 21 м.
Битрейт : 1800 Кбит/сек
Ширина : 720 пикселей
Высота : 400 пикселей
Соотношение сторон : 16:9
Частота кадров : 25,000 кадров/сек
Цветовое пространство : YUV
Субдискретизация насыщенности : 4:2:0
Битовая глубина : 8 бит
Тип развёртки : Прогрессивная
Метод сжатия : С потерями
Бит/(Пиксели*Кадры) : 0.250
Размер потока : 281 Мбайт (93%)
Библиотека кодирования : XviD 1.2.1 (UTC 2008-12-04)

Аудио
Идентификатор : 1
Формат : MPEG Audio
Версия формата : Version 1
Профиль формата : Layer 3
Режим : Joint stereo
Расширение режима : MS Stereo
Идентификатор кодека : 55
Идентификатор кодека/Подсказка : MP3
Продолжительность : 21 м.
Вид битрейта : Постоянный
Битрейт : 128 Кбит/сек
Каналы : 2 канала
Частота : 48,0 КГц
Метод сжатия : С потерями
Размер потока : 20,0 Мбайт (7%)
Выравнивание : Соединение по промежуткам
Продолжительность промежутка : 40 мс. (1,00 видеокадр)
Время предзагрузки промежутка : 504 мс.
Библиотека кодирования : LAME3.99r
Настройки программы : -m j -V 4 -q 9 -lowpass 17 -b 128
Внимание! Раздача ведётся путём добавления новых серий; при каждом добавлении создаётся новый торрент. Чтобы начать докачку новой серии, пользователям необходимо сделать следующее:
(1) остановить скачивание,
(2) удалить старый торрент у себя из клиента (старые серии удалять не надо),
(3) скачать новый торрент и запустить его у себя в клиенте вместо старого, при этом указать клиенту путь в старую папку куда и должно происходить скачивание новых серий.
Ваш клиент при этом должен произвести хеширование (проверку) старой папки (если не производит сам - помогите ему сделать это), и будет докачивать только те серии которых у вас ещё нет. Старые серии при этом не удаляются, а продолжают раздаваться!
Eсли вы уже удалили старые серии, то предотвратить повторную закачку старых серий можно, отжав галочку в соответсвующих местах при запуске нового торрента. По возможности, желательно не удалять старые серии как можно дольше чтобы релизёр не столько продолжал раздавать старые серии, а смог сконцентрироваться на новых.
pb.wtf



Скачать Легко ли быть молодым через торрент http://www.kartinko.org/image_library/1/76332.jpg Скачать фильм Легко ли быть молодым через торрент бесплантно в хорошем качестве Описание: Легко ли быть молодым, если живешь в современном мегаполисе? Легко ли быть молодым, если влюбился в того, кто тебе не пара? Или ... 8.9 10 8
Торрент: Зарегистрирован [2015-01-26 12:02] · скачан: 138 раз
Статус: √ проверено
Размер: 302 MB
Как cкачать? Как скачать Легко ли быть молодым через торрент | qTorrent



Последний раз редактировалось: _Fenixx_ни мужик ни баба (2015-01-26 12:06), всего редактировалось 1 раз

28-11-2019 20:33  

Отключить всю рекламу на сайте

26-01-2015 12:03 Легко ли быть молодым Скачать торрент  

А до эфира еще 5 часов 30 минут)))pb.wtf



26-01-2015 12:07 Легко ли быть молодым Скачать торрент  

_Fenixx_ писал(а):

А до эфира еще 5 часов 30 минут)))

У нас огромная страна pb.wtf



    Дорогой пользователь! Огромная просьба, поблагодарите релизера, оцените раздачу и оставьте свои комментарий, если Вы скачали Легко ли быть молодым через торрент бесплатно! Внесите свою лепту в развитие PiratBit!
    Комментировать посты могут только пользователи прошедшие не сложную регистрацию
    Показать сообщения:    

    Легко ли быть молодым через торрент
    Скачать бесплатно Легко ли быть молодым
    Легко ли быть молодым скачать торрент
    Легко ли быть молодым смотреть онлайн
    Cкачать фильм Легко ли быть молодым бесплатно
    Легко ли быть молодым скачать торрент в хорошем качестве
    Легко ли быть молодым смотреть онлайн бесплатно в хорошем качестве


    Вы не можете начинать темы
    Вы не можете отвечать на сообщения
    Вы не можете редактировать свои сообщения
    Вы не можете удалять свои сообщения
    Вы не можете голосовать в опросах
    Вы не можете прикреплять файлы к сообщениям
    Вы можете скачивать файлы