Ссылка на приватное зеркало нашего сайта всего за 1$. Внимание количество ограничено!!!

2 сезон

iTunes

1 сезон

1

iTunes

iTunes

iTunes

1 сезон

RePack

30

ИГРА 18+

pack

ВАЖНО

!!Акция!!

Alien_RageХит недели

RePack

MK11
pack

Забери бонус

RePack

jed

!!Акция!!

Alien_Rage

RePack

fifa19

RePack

Assassins Creed: Odyssey

RePack

NEED FOR SPEED™ PAYBACK

4 сезон

9 сезон

Бесстыжие 9 сезон

Все сериалы

все сериалы на PB.wtf

RePack

FAR CRY 5
  

Мужчины, женщины и дети / Men, Women & Children (Джейсон Райтман ) [2014, драма, комедия, BDRip 720p, Дубляж - [Лицензия, iTunes] pb.wtf

Мужчины, женщины и дети через торрент pb.wtf

Размер: 7.46 GB | Добавлен: 5 лет 8 мес. назад | Торрент скачан:77 раз
Скачать  

26-01-2015 14:03 Мужчины, женщины и дети Скачать торрент  

Мужчины, женщины и дети / Men, Women & Children

Год выпуска: 2014
Страна: США
Жанр: драма, комедия
Продолжительность: 01:59:27
Перевод: Дубляж - [Лицензия, iTunes]
Субтитры: английские, английские (SDH),
Режиссер: Джейсон Райтман
В ролях: Адам Сэндлер (Don Truby), Дженнифер Гарнер (Patricia Beltmeyer), Розмари ДеУитт (Helen Truby), Джуди Грир (Donna Clint), Дин Норрис (Kent Mooney), Эмма Томпсон (рассказчик, озвучка), Тимоти Чаламет (Danny Vance), Оливия Крочиккия (Hannah Clint), Кейтлин Девер (Brandy Beltmeyer), Энсел Элгорт (Tim Mooney), К.С. Хьюз (Brooke Benton), Елена Кампурис (Allison Doss)
Описание:
История о группе подростков и их родителях, которые пытаются понять, как интернет изменил их отношения, их связь, самооценку и любовь друг к другу.
Рейтинг:

MPAA: R - Лицам до 17 лет обязательно присутствие взрослого
Качество: BDRip 720p
Формат: MKV
Видео кодек: AVC
Аудио кодек:AC3, DTS
Видео: AVC, 1280x720 (16:9), 5035 kbps, 23,976 fps, 0,311 bpp
Аудио №1: русский / AC3 / 5.1 / 48 kHz / 384 kbps / 16 bit ||
Аудио №2: английский / DTS / 5.1 / 48 kHz / 1510 kbps / 24 bit
Навигация по главам: есть

Код:

General
Unique ID                                : 201624993688924324799808722885278622456 (0x97AF8FB09604C316B6D44545FA5EE2F8)
Complete name                            : D:\Торенты\Mujchiny.Jenshiny.i.Deti.2014.D.BDRip.720p.rustorrents.org.mkv
Format                                   : Matroska
Format version                           : Version 2
File size                                : 7.46 GiB
Duration                                 : 1h 59mn
Overall bit rate                         : 8 936 Kbps
Movie name                               : Mujchiny.Jenshiny.i.Deti.2014.D.BDRip.720p.ELEKTRI4KA [3imeMachi9e]
Encoded date                             : UTC 2015-01-25 20:23:23
Writing application                      : mkvmerge v5.0.1 ('Es ist Sommer') built on Nov  6 2011 16:23:40
Writing library                          : libebml v1.2.2 + libmatroska v1.3.0

Video
ID                                       : 1
Format                                   : AVC
Format/Info                              : Advanced Video Codec
Format profile                           : High@L4.1
Format settings, CABAC                   : Yes
Format settings, ReFrames                : 9 frames
Codec ID                                 : V_MPEG4/ISO/AVC
Duration                                 : 1h 59mn
Bit rate                                 : 5035 Kbps
Width                                    : 1 280 pixels
Height                                   : 720 pixels
Display aspect ratio                     : 16:9
Frame rate                               : 23.976 fps
Color space                              : YUV
Chroma subsampling                       : 4:2:0
Bit depth                                : 8 bits
Scan type                                : Progressive
Bits/(Pixel*Frame)                       : 0.311
Stream size                              : 5.73 GiB (77%)
Title                                    : Mujchiny.Jenshiny.i.Deti.2014.D.BDRip.720p.ELEKTRI4KA [3imeMachi9e]
Writing library                          : x264 core 142 r2431kMod ac76440
Encoding settings                        : cabac=1 / ref=9 / deblock=1:-3:-3 / analyse=0x3:0x133 / me=umh / subme=11 / psy=1 / fade_compensate=0.00 / psy_rd=1.05:0.00 / mixed_ref=1 / me_range=24 / chroma_me=1 / trellis=2 / 8x8dct=1 / cqm=0 / deadzone=21,11 / fast_pskip=0 / chroma_qp_offset=-2 / threads=24 / lookahead_threads=4 / sliced_threads=0 / nr=0 / decimate=0 / interlaced=0 / bluray_compat=0 / constrained_intra=0 / fgo=0 / bframes=8 / b_pyramid=2 / b_adapt=2 / b_bias=0 / direct=3 / weightb=1 / open_gop=0 / weightp=2 / keyint=250 / keyint_min=23 / scenecut=40 / intra_refresh=0 / rc=crf / mbtree=0 / crf=15.5000 / qcomp=0.65 / qpmin=0 / qpmax=69 / qpstep=4 / ip_ratio=1.20 / pb_ratio=1.10 / aq=1:0.85
Language                                 : English
Default                                  : Yes
Forced                                   : No

Audio #1
ID                                       : 2
Format                                   : AC-3
Format/Info                              : Audio Coding 3
Mode extension                           : CM (complete main)
Codec ID                                 : A_AC3
Duration                                 : 1h 59mn
Bit rate mode                            : Constant
Bit rate                                 : 384 Kbps
Channel(s)                               : 6 channels
Channel positions                        : Front: L C R, Side: L R, LFE
Sampling rate                            : 48.0 KHz
Bit depth                                : 16 bits
Compression mode                         : Lossy
Stream size                              : 328 MiB (4%)
Title                                    : iTunes - Mujchiny.Jenshiny.i.Deti.2014.D.BDRip.720p.ELEKTRI4KA [3imeMachi9e]
Language                                 : Russian
Default                                  : Yes
Forced                                   : No

Audio #2
ID                                       : 3
Format                                   : DTS
Format/Info                              : Digital Theater Systems
Codec ID                                 : A_DTS
Duration                                 : 1h 59mn
Bit rate mode                            : Constant
Bit rate                                 : 1 510 Kbps
Channel(s)                               : 6 channels
Channel positions                        : Front: L C R, Side: L R, LFE
Sampling rate                            : 48.0 KHz
Bit depth                                : 24 bits
Compression mode                         : Lossy
Stream size                              : 1.26 GiB (17%)
Title                                    : Mujchiny.Jenshiny.i.Deti.2014.D.BDRip.720p.ELEKTRI4KA [3imeMachi9e]
Language                                 : English
Default                                  : No
Forced                                   : No

Text #1
ID                                       : 4
Format                                   : UTF-8
Codec ID                                 : S_TEXT/UTF8
Codec ID/Info                            : UTF-8 Plain Text
Language                                 : English
Default                                  : No
Forced                                   : No

Text #2
ID                                       : 5
Format                                   : UTF-8
Codec ID                                 : S_TEXT/UTF8
Codec ID/Info                            : UTF-8 Plain Text
Title                                    : SDH
Language                                 : English
Default                                  : No
Forced                                   : No

Menu
00:00:00.000                             : en:00:00:00.000
00:05:44.094                             : en:00:05:44.094
00:09:58.681                             : en:00:09:58.681
00:14:15.813                             : en:00:14:15.813
00:17:59.829                             : en:00:17:59.829
00:21:30.873                             : en:00:21:30.873
00:26:15.491                             : en:00:26:15.491
00:30:14.813                             : en:00:30:14.813
00:35:02.976                             : en:00:35:02.976
00:45:45.326                             : en:00:45:45.326
00:49:00.229                             : en:00:49:00.229
00:53:56.900                             : en:00:53:56.900
01:01:14.629                             : en:01:01:14.629
01:06:36.159                             : en:01:06:36.159
01:10:47.702                             : en:01:10:47.702
01:19:38.691                             : en:01:19:38.691
01:25:52.147                             : en:01:25:52.147
01:28:48.573                             : en:01:28:48.573
01:36:39.752                             : en:01:36:39.752
01:48:45.477                             : en:01:48:45.477
01:54:51.593                             : en:01:54:51.593

pb.wtf



Скачать Мужчины, женщины и дети через торрент http://i64.fastpic.ru/big/2015/0126/c0/4cac4160fc21284d84648764298375c0.jpg Скачать фильм Мужчины, женщины и дети через торрент бесплантно в хорошем качестве Описание: История о группе подростков и их родителях, которые пытаются понять, как интернет изменил их отношения, их связь, самооценку и ... 10 10 4
Торрент: Зарегистрирован [2015-01-26 14:03] · скачан: 77 раз
Статус: √ проверено
Размер: 7.46 GB
Как cкачать? Как скачать Мужчины, женщины и дети через торрент | qTorrent

28-11-2019 20:33  

Отключить всю рекламу на сайте

    Дорогой пользователь! Огромная просьба, поблагодарите релизера, оцените раздачу и оставьте свои комментарий, если Вы скачали Мужчины, женщины и дети через торрент бесплатно! Внесите свою лепту в развитие PiratBit!
    Комментировать посты могут только пользователи прошедшие не сложную регистрацию
    Показать сообщения:    

    Мужчины, женщины и дети через торрент
    Скачать бесплатно Мужчины, женщины и дети
    Мужчины, женщины и дети скачать торрент
    Мужчины, женщины и дети смотреть онлайн
    Cкачать фильм Мужчины, женщины и дети бесплатно
    Мужчины, женщины и дети скачать торрент в хорошем качестве
    Мужчины, женщины и дети смотреть онлайн бесплатно в хорошем качестве


    Вы не можете начинать темы
    Вы не можете отвечать на сообщения
    Вы не можете редактировать свои сообщения
    Вы не можете удалять свои сообщения
    Вы не можете голосовать в опросах
    Вы не можете прикреплять файлы к сообщениям
    Вы можете скачивать файлы